Frivolous Lola (1998)

Monella (original title)|Not Rated | 1h 45min | Comedy, Romance | 29 January 1998 (Italy)

Set in the 1950s Italian countryside, the film tells the story of Lola and Masetto, a young couple whose views on premarital sex differ drastically.

Watch trailer

Media information

General
Format : Matroska
Format version : Version 4
File size : 902 MiB
Duration : 1 h 44 min
Overall bit rate : 1 206 kb/s
Movie name : Monella.1998.720p.BluRay.2CH.x264.AVC
Encoded date : UTC 2019-02-18 14:13:30
Writing application : mkvmerge v31.0.0 (‘Dolores In A Shoestand’) 32-bit
Writing library : libebml v1.3.6 + libmatroska v1.4.9

Video
ID : 1
Format : AVC
Format/Info : Advanced Video Codec
Format profile : [email protected]
Format settings : CABAC / 9 Ref Frames
Format settings, CABAC : Yes
Format settings, RefFrames : 9 frames
Codec ID : V_MPEG4/ISO/AVC
Duration : 1 h 44 min
Bit rate : 1 104 kb/s
Width : 1 280 pixels
Height : 720 pixels
Display aspect ratio : 16:9
Frame rate mode : Constant
Frame rate : 23.976 (24000/1001) FPS
Color space : YUV
Chroma subsampling : 4:2:0
Bit depth : 8 bits
Scan type : Progressive
Bits/(Pixel*Frame) : 0.050
Stream size : 826 MiB (92%)
Default : Yes
Forced : No

Audio
ID : 2
Format : AAC LC SBR
Commercial name : HE-AAC
Format settings : Explicit
Codec ID : A_AAC-2
Duration : 1 h 44 min
Bit rate : 100.0 kb/s
Channel(s) : 2 channels
Channel layout : L R
Sampling rate : 48.0 kHz
Frame rate : 23.438 FPS (2048 SPF)
Compression mode : Lossy
Delay relative to video : 31 ms
Stream size : 74.7 MiB (8%)
Language : Italian
Default : Yes
Forced : No

Text
ID : 3
Format : UTF-8
Codec ID : S_TEXT/UTF8
Codec ID/Info : UTF-8 Plain Text
Duration : 1 h 41 min
Bit rate : 41 b/s
Count of elements : 949
Stream size : 30.9 KiB (0%)
Language : English
Default : Yes
Forced : No

[collapse]
Download Link(s)

Download

[RE-UP]-Direct download files get automatically deleted after a month or so. Posted on: 09/16/2019

[collapse]
Magnet Link

Magnet

Frivolous.Lola.1998.1080p.BluRay.x264-SPLiTSViLLE-6.6 GB

[collapse]

You may also like...

error: nah :p~