Furious 7 (2015)

Fast & Furious 7 (original title)|PG-13 | 2h 17min | Action, Adventure, Crime | 3 April 2015 (USA)

Deckard Shaw seeks revenge against Dominic Toretto and his family for his comatose brother.

Watch trailer

Media information

General
Format : Matroska
Format version : Version 4
File size : 1.82 GiB
Duration : 2 h 19 min
Overall bit rate : 1 858 kb/s
Movie name : Furious.Seven.Extended.2015.1080p.10bit.BluRay.8CH.x265.HEVC

Video
ID : 1
Format : HEVC
Format/Info : High Efficiency Video Coding
Format profile : Main [email protected]@Main
Codec ID : V_MPEGH/ISO/HEVC
Duration : 2 h 19 min
Bit rate : 1 477 kb/s
Width : 1 920 pixels
Height : 800 pixels
Display aspect ratio : 2.40:1
Frame rate mode : Constant
Frame rate : 23.976 (24000/1001) FPS
Color space : YUV
Chroma subsampling : 4:2:0
Bit depth : 10 bits
Bits/(Pixel*Frame) : 0.040
Stream size : 1.44 GiB (80%)
Default : Yes
Forced : No

Audio
ID : 2
Format : AAC LC
Codec ID : A_AAC-2
Duration : 2 h 19 min
Bit rate : 353 kb/s
Channel(s) : 8 channels
Channel layout : C L R Ls Rs Lw Rw LFE
Sampling rate : 48.0 kHz
Frame rate : 46.875 FPS (1024 SPF)
Compression mode : Lossy
Delay relative to video : 9 ms
Stream size : 358 MiB (19%)
Language : English
Default : Yes
Forced : No

Text #1
ID : 3
Format : PGS
Muxing mode : zlib
Codec ID : S_HDMV/PGS
Duration : 2 h 10 min
Bit rate : 33.0 kb/s
Count of elements : 3340
Stream size : 30.9 MiB (2%)
Language : English
Default : Yes
Forced : No

Text #2
ID : 4
Format : VobSub
Muxing mode : zlib
Codec ID : S_VOBSUB
Duration : 2 h 10 min
Bit rate : 7 561 b/s
Count of elements : 1422
Stream size : 7.07 MiB (0%)
Language : Spanish
Default : No
Forced : No

Text #3
ID : 5
Format : VobSub
Muxing mode : zlib
Codec ID : S_VOBSUB
Duration : 2 h 19 min
Bit rate : 7 408 b/s
Count of elements : 1411
Stream size : 7.37 MiB (0%)
Language : French
Default : No
Forced : No

Text #4
ID : 6
Format : UTF-8
Codec ID : S_TEXT/UTF8
Codec ID/Info : UTF-8 Plain Text
Duration : 2 h 10 min
Bit rate : 64 b/s
Count of elements : 1451
Stream size : 61.7 KiB (0%)
Language : Arabic
Default : No
Forced : No

Text #5
ID : 7
Format : UTF-8
Codec ID : S_TEXT/UTF8
Codec ID/Info : UTF-8 Plain Text
Duration : 2 h 8 min
Bit rate : 39 b/s
Count of elements : 1033
Stream size : 37.2 KiB (0%)
Language : Danish
Default : No
Forced : No

Text #6
ID : 8
Format : UTF-8
Codec ID : S_TEXT/UTF8
Codec ID/Info : UTF-8 Plain Text
Duration : 2 h 10 min
Bit rate : 40 b/s
Count of elements : 1035
Stream size : 39.1 KiB (0%)
Language : Dutch
Default : No
Forced : No

Text #7
ID : 9
Format : UTF-8
Codec ID : S_TEXT/UTF8
Codec ID/Info : UTF-8 Plain Text
Duration : 2 h 13 min
Bit rate : 46 b/s
Count of elements : 1464
Stream size : 45.4 KiB (0%)
Language : English
Default : No
Forced : No

Text #8
ID : 10
Format : UTF-8
Codec ID : S_TEXT/UTF8
Codec ID/Info : UTF-8 Plain Text
Duration : 2 h 10 min
Bit rate : 72 b/s
Count of elements : 1392
Stream size : 69.1 KiB (0%)
Language : Persian
Default : No
Forced : No

Text #9
ID : 11
Format : UTF-8
Codec ID : S_TEXT/UTF8
Codec ID/Info : UTF-8 Plain Text
Duration : 2 h 11 min
Bit rate : 108 b/s
Count of elements : 1422
Stream size : 104 KiB (0%)
Language : Indonesian
Default : No
Forced : No

Text #10
ID : 12
Format : UTF-8
Codec ID : S_TEXT/UTF8
Codec ID/Info : UTF-8 Plain Text
Duration : 2 h 10 min
Bit rate : 55 b/s
Count of elements : 1400
Stream size : 53.0 KiB (0%)
Language : Vietnamese
Default : No
Forced : No

[collapse]
Download Link(s)

Download

Direct download files get automatically deleted after a month or so. Posted on : 04/29/2020

[collapse]
Magnet Link

Magnet

Furious-Seven-2015-EE-1080p-BluRay-x265-HEVC-10bit-AAC-7-1-1.8 GB

[collapse]

Media information

General
Format : Matroska
Format version : Version 4
File size : 1 016 MiB
Duration : 2 h 19 min
Overall bit rate : 1 016 kb/s
Movie name : Furious.Seven.Extended.2015.720p.10bit.BluRay.6CH.x265.HEVC

Video
ID : 1
Format : HEVC
Format/Info : High Efficiency Video Coding
Format profile : Main [email protected]@Main
Codec ID : V_MPEGH/ISO/HEVC
Duration : 2 h 19 min
Bit rate : 800 kb/s
Width : 1 280 pixels
Height : 534 pixels
Display aspect ratio : 2.40:1
Frame rate mode : Constant
Frame rate : 23.976 (24000/1001) FPS
Color space : YUV
Chroma subsampling : 4:2:0
Bit depth : 10 bits
Bits/(Pixel*Frame) : 0.049
Stream size : 801 MiB (79%)
Default : Yes
Forced : No
Color range : Limited
Color primaries : BT.709
Transfer characteristics : BT.709
Matrix coefficients : BT.709

Audio
ID : 2
Format : AAC LC
Codec ID : A_AAC-2
Duration : 2 h 19 min
Bit rate : 192 kb/s
Channel(s) : 6 channels
Channel layout : C L R Ls Rs LFE
Sampling rate : 48.0 kHz
Frame rate : 46.875 FPS (1024 SPF)
Compression mode : Lossy
Delay relative to video : -12 ms
Stream size : 192 MiB (19%)
Title : Surround
Language : English
Default : Yes
Forced : No

Text #1
ID : 3
Format : PGS
Muxing mode : zlib
Codec ID : S_HDMV/PGS
Duration : 2 h 10 min
Bit rate : 33.0 kb/s
Count of elements : 3340
Stream size : 30.9 MiB (3%)
Language : English
Default : Yes
Forced : Yes

Text #2
ID : 4
Format : VobSub
Muxing mode : zlib
Codec ID : S_VOBSUB
Duration : 2 h 10 min
Bit rate : 7 561 b/s
Count of elements : 1422
Stream size : 7.07 MiB (1%)
Language : Spanish
Default : No
Forced : No

Text #3
ID : 5
Format : VobSub
Muxing mode : zlib
Codec ID : S_VOBSUB
Duration : 2 h 19 min
Bit rate : 7 408 b/s
Count of elements : 1411
Stream size : 7.37 MiB (1%)
Language : French
Default : No
Forced : No

Text #4
ID : 6
Format : ASS
Codec ID : S_TEXT/ASS
Duration : 2 h 10 min
Bit rate : 95 b/s
Count of elements : 1451
Compression mode : Lossless
Stream size : 91.8 KiB (0%)
Language : Arabic
Default : No
Forced : No

Text #5
ID : 7
Format : ASS
Codec ID : S_TEXT/ASS
Duration : 2 h 8 min
Bit rate : 62 b/s
Count of elements : 1033
Compression mode : Lossless
Stream size : 58.3 KiB (0%)
Language : Danish
Default : No
Forced : No

Text #6
ID : 8
Format : ASS
Codec ID : S_TEXT/ASS
Duration : 2 h 10 min
Bit rate : 63 b/s
Count of elements : 1035
Compression mode : Lossless
Stream size : 60.3 KiB (0%)
Language : Dutch
Default : No
Forced : No

Text #7
ID : 9
Format : ASS
Codec ID : S_TEXT/ASS
Duration : 2 h 13 min
Bit rate : 77 b/s
Count of elements : 1464
Compression mode : Lossless
Stream size : 76.0 KiB (0%)
Language : English
Default : No
Forced : No

Text #8
ID : 10
Format : ASS
Codec ID : S_TEXT/ASS
Duration : 2 h 10 min
Bit rate : 102 b/s
Count of elements : 1392
Compression mode : Lossless
Stream size : 98.0 KiB (0%)
Language : Persian
Default : No
Forced : No

Text #9
ID : 11
Format : ASS
Codec ID : S_TEXT/ASS
Duration : 2 h 11 min
Bit rate : 148 b/s
Count of elements : 1422
Compression mode : Lossless
Stream size : 143 KiB (0%)
Default : No
Forced : No

Text #10
ID : 12
Format : ASS
Codec ID : S_TEXT/ASS
Duration : 2 h 10 min
Bit rate : 85 b/s
Count of elements : 1400
Compression mode : Lossless
Stream size : 82.0 KiB (0%)
Language : Vietnamese
Default : No
Forced : No

[collapse]
Download Link(s)

Download

Direct download files get automatically deleted after a month or so. Posted on : 04/29/2020

[collapse]
Magnet Link

Magnet

Furious-Seven-2015-EE-1080p-BluRay-x265-HEVC-10bit-AAC-7-1-1.8 GB

[collapse]

You may also like...

error: nah :p~