General Magic (2018)

1h 30min | Documentary | 12 July 2019 (USA)

The ideas that dominate the tech industry and our day to day lives were born at a secretive Silicon Valley start-up named ‘General Magic’, which spun out of Apple in 1990 to create the first handheld personal communicator (or “smartphone”).

Watch trailer

Media information

General
Format : Matroska
Format version : Version 4
File size : 751 MiB
Duration : 1 h 33 min
Overall bit rate : 1 122 kb/s
Movie name : General.Magic.2019.720p.WEB-DL.2CH.x264.AVC
Encoded date : UTC 2019-07-10 14:03:38
Writing application : mkvmerge v35.0.0 (‘All The Love In The World’) 32-bit
Writing library : libebml v1.3.9 + libmatroska v1.5.2

Video
ID : 1
Format : AVC
Format/Info : Advanced Video Codec
Format profile : [email protected]
Format settings : CABAC / 8 Ref Frames
Format settings, CABAC : Yes
Format settings, Reference frames : 8 frames
Codec ID : V_MPEG4/ISO/AVC
Duration : 1 h 33 min
Bit rate : 1 056 kb/s
Width : 1 280 pixels
Height : 720 pixels
Display aspect ratio : 16:9
Frame rate mode : Constant
Frame rate : 23.976 (24000/1001) FPS
Color space : YUV
Chroma subsampling : 4:2:0
Bit depth : 8 bits
Scan type : Progressive
Bits/(Pixel*Frame) : 0.048
Stream size : 706 MiB (94%)
Default : Yes
Forced : No

Audio
ID : 2
Format : AAC LC SBR
Commercial name : HE-AAC
Format settings : Explicit
Codec ID : A_AAC-2
Duration : 1 h 33 min
Bit rate : 64.0 kb/s
Channel(s) : 2 channels
Channel layout : L R
Sampling rate : 48.0 kHz
Frame rate : 23.438 FPS (2048 SPF)
Compression mode : Lossy
Delay relative to video : 43 ms
Stream size : 42.8 MiB (6%)
Language : English
Default : Yes
Forced : No

Text #1
ID : 3
Format : UTF-8
Codec ID : S_TEXT/UTF8
Codec ID/Info : UTF-8 Plain Text
Duration : 1 h 27 min
Bit rate : 115 b/s
Count of elements : 1314
Stream size : 74.1 KiB (0%)
Language : English
Default : Yes
Forced : No

Text #2
ID : 4
Format : UTF-8
Codec ID : S_TEXT/UTF8
Codec ID/Info : UTF-8 Plain Text
Duration : 1 h 28 min
Bit rate : 118 b/s
Count of elements : 1348
Stream size : 77.1 KiB (0%)
Title : SDH
Language : English
Default : No
Forced : No

[collapse]
Download Link(s)

Download

Direct download files get automatically deleted after a month or so. Posted on : 07/10/2019

[collapse]
Magnet Link

Magnet

General.Magic.2018.1080p.AMZN.WEBRip.DDP5.1.x264-NTG-6.59 GB

[collapse]

You may also like...

error: nah :p~