Genesis (2018)

1h 54min | Sci-Fi | April 2018 (USA)

‘Genesis’ is the third feature from British writing and directing duo Bart Ruspoli & Freddie Hutton-Mills. The first in a sci-fi trilogy, ‘Genesis’ explores the nature of free will and what it means to be human, against a post apocalyptic backdrop where the remnants of mankind attempt to create A.I. to save them from extinction. The film stars John Hannah (The Mummy trilogy, Marvel’s Agents of S.H.I.E.L.D), Olivia Grant (Stardust, Indian Summers), Warren Brown (Strike Back, Luther) and Chike Okonkwo (The Birth of a Nation, Being Mary Jane).

Watch trailer

Media information

General
Format : Matroska
Format version : Version 4 / Version 2
File size : 903 MiB
Duration : 1 h 52 min
Overall bit rate : 1 118 kb/s
Movie name : Genesis.2018.720p.WEB-DL.2CH.x264.AVC
Encoded date : UTC 2018-04-20 19:00:32
Writing application : mkvmerge v22.0.0 (‘At The End Of The World’) 32-bit
Writing library : libebml v1.3.5 + libmatroska v1.4.8

Video
ID : 1
Format : AVC
Format/Info : Advanced Video Codec
Format profile : [email protected]
Format settings : CABAC / 8 Ref Frames
Format settings, CABAC : Yes
Format settings, RefFrames : 8 frames
Codec ID : V_MPEG4/ISO/AVC
Duration : 1 h 52 min
Bit rate : 1 053 kb/s
Width : 1 280 pixels
Height : 720 pixels
Display aspect ratio : 16:9
Frame rate mode : Constant
Frame rate : 23.976 (24000/1001) FPS
Color space : YUV
Chroma subsampling : 4:2:0
Bit depth : 8 bits
Scan type : Progressive
Bits/(Pixel*Frame) : 0.048
Stream size : 850 MiB (94%)
Default : Yes
Forced : No
Color range : Limited
Color primaries : BT.709
Transfer characteristics : BT.709
Matrix coefficients : BT.709

Audio
ID : 2
Format : AAC
Format/Info : Advanced Audio Codec
Format profile : HE-AAC / LC
Format settings : Explicit
Codec ID : A_AAC-2
Duration : 1 h 52 min
Bit rate : 63.7 kb/s
Channel(s) : 2 channels
Channel positions : Front: L R
Sampling rate : 48.0 kHz / 24.0 kHz
Frame rate : 23.438 FPS (1024 SPF)
Compression mode : Lossy
Delay relative to video : 31 ms
Stream size : 51.5 MiB (6%)
Language : English
Default : Yes
Forced : No

Text
ID : 3
Format : UTF-8
Codec ID : S_TEXT/UTF8
Codec ID/Info : UTF-8 Plain Text
Duration : 1 h 48 min
Bit rate : 59 b/s
Count of elements : 1634
Stream size : 47.0 KiB (0%)
Default : Yes
Forced : No

[collapse]
Download Link(s)

Download

Direct download files get automatically deleted after a month or so. Posted on : 04/20/2018

[collapse]
Magnet Link

Magnet

Source : Genesis.2018.1080p.AMZN.WEBRip.DDP5.1.x264-NTG-6.14 GB

[collapse]

You may also like...

error: nah :p~