Ghost in the Graveyard (2019)

1h 32min | Action, Drama, Horror | 5 November 2019 (USA)

The town of Mt. Moriah comes under the thumb of Martha, a ghost who comes back to haunt the teens, who witnessed her death as children, during a “game” of ‘Ghost in the Graveyard.’

Watch trailer

Media information

General
Format : Matroska
Format version : Version 4
File size : 809 MiB
Duration : 1 h 32 min
Overall bit rate : 1 218 kb/s
Movie name : Ghost.in.the.Graveyard.2019.720p.WEB-DL.2CH.x264.AVC
Encoded date : UTC 2019-11-07 07:56:55
Writing application : mkvmerge v39.0.0 (‘In The Waiting Line’) 32-bit
Writing library : libebml v1.3.9 + libmatroska v1.5.2

Video
ID : 1
Format : AVC
Format/Info : Advanced Video Codec
Format profile : [email protected]
Format settings : CABAC / 4 Ref Frames
Format settings, CABAC : Yes
Format settings, Reference frames : 4 frames
Codec ID : V_MPEG4/ISO/AVC
Duration : 1 h 32 min
Bit rate : 1 100 kb/s
Width : 1 280 pixels
Height : 530 pixels
Display aspect ratio : 2.40:1
Frame rate mode : Constant
Frame rate : 23.976 (24000/1001) FPS
Color space : YUV
Chroma subsampling : 4:2:0
Bit depth : 8 bits
Scan type : Progressive
Bits/(Pixel*Frame) : 0.068
Stream size : 723 MiB (89%)
Default : Yes
Forced : No
Color range : Limited
Color primaries : BT.709
Transfer characteristics : BT.709
Matrix coefficients : BT.709

Audio
ID : 2
Format : AAC LC
Codec ID : A_AAC-2
Duration : 1 h 32 min
Bit rate : 128 kb/s
Channel(s) : 2 channels
Channel layout : L R
Sampling rate : 48.0 kHz
Frame rate : 46.875 FPS (1024 SPF)
Compression mode : Lossy
Delay relative to video : -21 ms
Stream size : 84.9 MiB (10%)
Language : English
Default : Yes
Forced : No

Text
ID : 3
Format : ASS
Codec ID : S_TEXT/ASS
Duration : 1 h 31 min
Bit rate : 105 b/s
Count of elements : 1313
Compression mode : Lossless
Stream size : 70.8 KiB (0%)
Language : English
Default : Yes
Forced : No

[collapse]
Download Link(s)

Download

Direct download files get automatically deleted after a month or so. Posted on : 11/07/2019

[collapse]
Magnet Link

Magnet

Ghost.in.the.Graveyard.2019.1080p.AMZN.WEBRip.DDP5.1.x264-NTG-4.84 GB

[collapse]

You may also like...

error: nah :p~