Ghost Ship (2002)

R | 1h 31min | Horror | 25 October 2002 (USA)

A salvage crew that discovers a long-lost 1962 passenger ship floating lifeless in a remote region of the Bering Sea soon notices, as they prepare to tow it back to land, that strange things happen.

Watch trailer

Media information

General
Format : Matroska
Format version : Version 4 / Version 2
File size : 798 MiB
Duration : 1 h 30 min
Overall bit rate : 1 229 kb/s
Movie name : Ghost.Ship.2002.1080p.BluRay.2CH.x265.HEVC
Encoded date : UTC 2018-07-31 16:33:36
Writing application : mkvmerge v25.0.0 (‘Prog Noir’) 32-bit
Writing library : libebml v1.3.6 + libmatroska v1.4.9

Video
ID : 1
Format : HEVC
Format/Info : High Efficiency Video Coding
Format profile : [email protected]@Main
Codec ID : V_MPEGH/ISO/HEVC
Duration : 1 h 30 min
Bit rate : 1 100 kb/s
Width : 1 920 pixels
Height : 1 080 pixels
Display aspect ratio : 16:9
Frame rate mode : Constant
Frame rate : 23.976 (24000/1001) FPS
Color space : YUV
Chroma subsampling : 4:2:0
Bit depth : 8 bits
Bits/(Pixel*Frame) : 0.022
Stream size : 714 MiB (89%)
Default : Yes
Forced : No
Color range : Limited
Color primaries : BT.709
Transfer characteristics : BT.709
Matrix coefficients : BT.709

Audio
ID : 2
Format : Opus
Codec ID : A_OPUS
Duration : 1 h 30 min
Bit rate : 128 kb/s
Channel(s) : 2 channels
Channel positions : Front: L R
Sampling rate : 48.0 kHz
Frame rate : 50.000 FPS (960 SPF)
Compression mode : Lossy
Delay relative to video : -7 ms
Stream size : 82.2 MiB (10%)
Title : Stereo
Language : English
Default : Yes
Forced : No

Text
ID : 3
Format : ASS
Codec ID : S_TEXT/ASS
Codec ID/Info : Advanced Sub Station Alpha
Duration : 1 h 25 min
Bit rate : 65 b/s
Count of elements : 676
Compression mode : Lossless
Stream size : 41.4 KiB (0%)
Default : Yes
Forced : Yes

[collapse]
Download Link(s)

Download

[RE-UP] – Direct download files get automatically deleted after a month or so. Posted on : 07/31/2018

[collapse]
Magnet Link

Magnet

Source : Ghost.Ship.2002.1080p.BluRay.x264-HDCLASSiCS-6.56 GB

[collapse]

Media information

General
Format : Matroska
Format version : Version 4 / Version 2
File size : 463 MiB
Duration : 1 h 30 min
Overall bit rate : 714 kb/s
Movie name : Ghost.Ship.2002.720p.BluRay.2CH.x265.HEVC
Encoded date : UTC 2018-07-31 16:30:37
Writing application : mkvmerge v25.0.0 (‘Prog Noir’) 32-bit
Writing library : libebml v1.3.6 + libmatroska v1.4.9

Video
ID : 1
Format : HEVC
Format/Info : High Efficiency Video Coding
Format profile : [email protected]@Main
Codec ID : V_MPEGH/ISO/HEVC
Duration : 1 h 30 min
Bit rate : 585 kb/s
Width : 1 280 pixels
Height : 720 pixels
Display aspect ratio : 16:9
Original display aspect ratio : 16:9
Frame rate mode : Constant
Frame rate : 23.976 (24000/1001) FPS
Color space : YUV
Chroma subsampling : 4:2:0
Bit depth : 8 bits
Bits/(Pixel*Frame) : 0.026
Stream size : 379 MiB (82%)
Default : Yes
Forced : No
Color range : Limited
Color primaries : BT.709
Transfer characteristics : BT.709
Matrix coefficients : BT.709

Audio
ID : 2
Format : Opus
Codec ID : A_OPUS
Duration : 1 h 30 min
Bit rate : 128 kb/s
Channel(s) : 2 channels
Channel positions : Front: L R
Sampling rate : 48.0 kHz
Frame rate : 50.000 FPS (960 SPF)
Compression mode : Lossy
Delay relative to video : -7 ms
Stream size : 82.2 MiB (18%)
Title : Stereo
Language : English
Default : Yes
Forced : No

Text
ID : 3
Format : ASS
Codec ID : S_TEXT/ASS
Codec ID/Info : Advanced Sub Station Alpha
Duration : 1 h 25 min
Bit rate : 65 b/s
Count of elements : 676
Compression mode : Lossless
Stream size : 41.4 KiB (0%)
Default : Yes
Forced : Yes

[collapse]
Download Link(s)

Download

[RE-UP] – Direct download files get automatically deleted after a month or so. Posted on : 07/31/2018

[collapse]
Magnet Link

Magnet

Source : Ghost.Ship.2002.1080p.BluRay.x264-HDCLASSiCS-6.56 GB

[collapse]

You may also like...

error: nah :p~