Gladiator (2000)

R | 2h 35min | Action, Adventure, Drama | 5 May 2000 (USA)

A former Roman General sets out to exact vengeance against the corrupt emperor who murdered his family and sent him into slavery.

Watch trailer

Media information

General
Format : Matroska
Format version : Version 4
File size : 984 MiB
Duration : 2 h 50 min
Overall bit rate : 805 kb/s
Movie name : Gladiator.2000.Remastered.Extended.720p.BluRay.2CH.x265.HEVC
Encoded date : UTC 2019-03-04 16:18:35
Writing application : mkvmerge v31.0.0 (‘Dolores In A Shoestand’) 32-bit
Writing library : libebml v1.3.6 + libmatroska v1.4.9

Video
ID : 1
Format : HEVC
Format/Info : High Efficiency Video Coding
Format profile : [email protected]@Main
Codec ID : V_MPEGH/ISO/HEVC
Duration : 2 h 50 min
Bit rate : 738 kb/s
Width : 1 280 pixels
Height : 544 pixels
Display aspect ratio : 2.35:1
Frame rate mode : Constant
Frame rate : 23.976 (24000/1001) FPS
Color space : YUV
Chroma subsampling : 4:2:0
Bit depth : 8 bits
Bits/(Pixel*Frame) : 0.044
Stream size : 903 MiB (92%)
Default : Yes
Forced : No
Color range : Limited
Color primaries : BT.709
Transfer characteristics : BT.709
Matrix coefficients : BT.709

Audio
ID : 2
Format : AAC LC
Codec ID : A_AAC-2
Duration : 2 h 50 min
Bit rate : 64.4 kb/s
Channel(s) : 2 channels
Channel layout : L R
Sampling rate : 48.0 kHz
Frame rate : 46.875 FPS (1024 SPF)
Compression mode : Lossy
Delay relative to video : 22 ms
Stream size : 78.7 MiB (8%)
Title : Stereo
Language : English
Default : Yes
Forced : No

Text #1
ID : 3
Format : ASS
Codec ID : S_TEXT/ASS
Duration : 2 h 41 min
Bit rate : 66 b/s
Count of elements : 1619
Compression mode : Lossless
Stream size : 78.7 KiB (0%)
Language : English
Default : Yes
Forced : Yes

Text #2
ID : 4
Format : ASS
Codec ID : S_TEXT/ASS
Duration : 2 h 40 min
Bit rate : 58 b/s
Count of elements : 1362
Compression mode : Lossless
Stream size : 68.4 KiB (0%)
Language : English
Default : No
Forced : No

[collapse]
Download Link(s)

Download

Direct download files get automatically deleted after a month or so. Posted on : 03/04/2019

[collapse]
Magnet Link

Magnet

Gladiator.2000.EXTENDED.1080p.BluRay.x264.DTS-X.7.1-SWTYBLZ-22.29 GB

[collapse]

You may also like...

error: nah :p~