Guardians of the Galaxy (2014)

PG-13 | 2h 1min | Action, Adventure, Sci-Fi | 1 August 2014 (USA)

A group of intergalactic criminals are forced to work together to stop a fanatical warrior from taking control of the universe.

Watch trailer

Media information

General
Format : Matroska
Format version : Version 4 / Version 2
File size : 1.33 GiB
Duration : 2 h 0 min
Overall bit rate : 1 570 kb/s
Movie name : Guardians.of.the.Galaxy.2014.IMAX.720p.10bit.BluRay.6CH.x265.HEVC
Encoded date : UTC 2018-08-12 17:15:05
Writing application : mkvmerge v25.0.0 (‘Prog Noir’) 32-bit
Writing library : libebml v1.3.6 + libmatroska v1.4.9

Video
ID : 1
Format : HEVC
Format/Info : High Efficiency Video Coding
Format profile : Main [email protected]@Main
Codec ID : V_MPEGH/ISO/HEVC
Duration : 2 h 0 min
Bit rate : 1 345 kb/s
Width : 1 280 pixels
Height : 720 pixels
Display aspect ratio : 16:9
Frame rate mode : Constant
Frame rate : 23.976 (24000/1001) FPS
Color space : YUV
Chroma subsampling : 4:2:0
Bit depth : 10 bits
Bits/(Pixel*Frame) : 0.061
Stream size : 1.14 GiB (86%)
Default : Yes
Forced : No

Audio
ID : 2
Format : AAC
Format/Info : Advanced Audio Codec
Format profile : HE-AAC / LC
Format settings : Explicit
Codec ID : A_AAC-2
Duration : 2 h 0 min
Bit rate : 223 kb/s
Channel(s) : 6 channels
Channel positions : Front: L C R, Side: L R, LFE
Sampling rate : 48.0 kHz / 24.0 kHz
Frame rate : 23.438 FPS (1024 SPF)
Compression mode : Lossy
Delay relative to video : 31 ms
Stream size : 193 MiB (14%)
Language : English
Default : Yes
Forced : No

Text #1
ID : 3
Format : UTF-8
Codec ID : S_TEXT/UTF8
Codec ID/Info : UTF-8 Plain Text
Duration : 2 h 0 min
Bit rate : 47 b/s
Count of elements : 1419
Stream size : 41.9 KiB (0%)
Title : ENG
Language : English
Default : Yes
Forced : No

Text #2
ID : 4
Format : UTF-8
Codec ID : S_TEXT/UTF8
Codec ID/Info : UTF-8 Plain Text
Duration : 2 h 0 min
Bit rate : 53 b/s
Count of elements : 1667
Stream size : 46.9 KiB (0%)
Title : ENG SDH
Language : English
Default : No
Forced : No

[collapse]
Download Link(s)

Part01 Part02

Direct download files get automatically deleted after a month or so. Posted on : 08/13/2018

[collapse]
Magnet Link

Magnet

Source : Guardians.of.the.Galaxy.2014.1080p.IMAX.BluRay.REMUX.AVC.DTS-HD.MA.7.1-RARBG-28.11 GB

[collapse]

You may also like...

error: nah :p~