Gun City (2018)

La sombra de la ley (original title)|TV-MA | 2h 6min | Thriller | 11 October 2018 (Spain)

In 1921 a tough cop is sent from Madrid to Barcelona to locate stolen military weaponry.

Watch trailer

Media information

General
Format : Matroska
Format version : Version 4
File size : 1.22 GiB
Duration : 2 h 5 min
Overall bit rate : 1 385 kb/s
Movie name : La.Sombra.De.La.Ley.2018.720p.BluRay.2CH.x264.AVC
Encoded date : UTC 2019-02-02 15:18:14
Writing application : mkvmerge v30.1.0 (‘Forever And More’) 32-bit
Writing library : libebml v1.3.6 + libmatroska v1.4.9

Video
ID : 2
Format : AVC
Format/Info : Advanced Video Codec
Format profile : [email protected]
Format settings : CABAC / 8 Ref Frames
Format settings, CABAC : Yes
Format settings, RefFrames : 8 frames
Codec ID : V_MPEG4/ISO/AVC
Duration : 2 h 5 min
Bit rate : 1 284 kb/s
Width : 1 280 pixels
Height : 536 pixels
Display aspect ratio : 2.40:1
Frame rate mode : Constant
Frame rate : 24.000 FPS
Color space : YUV
Chroma subsampling : 4:2:0
Bit depth : 8 bits
Scan type : Progressive
Bits/(Pixel*Frame) : 0.078
Stream size : 1.13 GiB (93%)
Default : Yes
Forced : No

Audio
ID : 3
Format : AAC LC SBR
Commercial name : HE-AAC
Format settings : Explicit
Codec ID : A_AAC-2
Duration : 2 h 5 min
Bit rate : 100.0 kb/s
Channel(s) : 2 channels
Channel layout : L R
Sampling rate : 48.0 kHz
Frame rate : 23.438 FPS (2048 SPF)
Compression mode : Lossy
Delay relative to video : 43 ms
Stream size : 90.1 MiB (7%)
Title : Spanish
Language : Spanish
Default : Yes
Forced : Yes

Text
ID : 1
Format : UTF-8
Codec ID : S_TEXT/UTF8
Codec ID/Info : UTF-8 Plain Text
Duration : 1 h 57 min
Bit rate : 39 b/s
Count of elements : 1238
Stream size : 34.3 KiB (0%)
Language : English
Default : Yes
Forced : No

[collapse]
Download Link(s)

Part01 Part02

Direct download files get automatically deleted after a month or so. Posted on : 02/02/2019

[collapse]
Magnet Link

Magnet

La.sombra.de.la.ley.AKA.Gun.City.2018.720p.BRRip-1.2 GB

[collapse]

You may also like...

error: nah :p~