Hacksaw Ridge (2016)

R | 2h 19min | Biography, Drama, History | 4 November 2016 (USA)

WWII American Army Medic Desmond T. Doss, who served during the Battle of Okinawa, refuses to kill people, and becomes the first man in American history to receive the Medal of Honor without firing a shot.

Watch trailer

Media information

General
Format : Matroska
Format version : Version 4 / Version 2
File size : 465 MiB
Duration : 2 h 19 min
Overall bit rate : 466 kb/s
Movie name : Hacksaw.Ridge.2016.720p.BRrip.HEVC.10bit
Encoded date : UTC 2017-11-20 13:57:33
Writing application : mkvmerge v18.0.0 (‘Apricity’) 32-bit
Writing library : libebml v1.3.5 + libmatroska v1.4.8

Video
ID : 1
Format : HEVC
Format/Info : High Efficiency Video Coding
Format profile : Main [email protected]@Main
Codec ID : V_MPEGH/ISO/HEVC
Duration : 2 h 19 min
Bit rate : 412 kb/s
Width : 1 280 pixels
Height : 536 pixels
Display aspect ratio : 2.40:1
Frame rate mode : Constant
Frame rate : 23.976 (24000/1001) FPS
Color space : YUV
Chroma subsampling : 4:2:0
Bit depth : 10 bits
Bits/(Pixel*Frame) : 0.025
Stream size : 410 MiB (88%)
Writing library : x265 2.2+2-bbb13fcb4c45:[Windows][GCC 6.3.0][64 bit] 10bit
Default : Yes
Forced : No

Audio
ID : 2
Format : Opus
Codec ID : A_OPUS
Duration : 2 h 19 min
Bit rate : 52.4 kb/s
Channel(s) : 2 channels
Channel positions : Front: L R
Sampling rate : 48.0 kHz
Frame rate : 50.000 FPS (960 SPF)
Compression mode : Lossy
Stream size : 52.2 MiB (11%)
Language : English
Default : Yes
Forced : No

Text
ID : 3
Format : UTF-8
Codec ID : S_TEXT/UTF8
Codec ID/Info : UTF-8 Plain Text
Duration : 2 h 9 min
Bit rate : 55 b/s
Count of elements : 1655
Stream size : 53.2 KiB (0%)
Language : English
Default : Yes
Forced : No

[collapse]
Download Link(s)

Download

[RE-UP] – Direct download files get automatically deleted after a month or so. Posted on : 06/11/2018

[collapse]
Magnet Link

Magnet

Source : Hacksaw.Ridge.2016.1080p.BluRay.x264-SPARKS-9.84 GB

[collapse]

You may also like...

error: nah :p~