Happily (2021)

R | 1h 36min | Comedy, Crime, Romance | 19 March 2021 (USA)

A dark romantic comedy. Tom and Janet have been happily married for years. But a visit from a mysterious stranger leads to a dead body, a lot of questions, and a tense couples’ trip with friends who may not actually be friends at all.

Watch trailer

Media information

General
Format : Matroska
Format version : Version 4
File size : 655 MiB
Duration : 1 h 35 min
Overall bit rate : 955 kb/s
Movie name : Happily.2021.720p.WEBRip.2CH.x265.HEVC

Video
ID : 1
Format : HEVC
Format/Info : High Efficiency Video Coding
Format profile : [email protected]@Main
Codec ID : V_MPEGH/ISO/HEVC
Duration : 1 h 35 min
Bit rate : 885 kb/s
Width : 1 280 pixels
Height : 536 pixels
Display aspect ratio : 2.40:1
Frame rate mode : Constant
Frame rate : 23.976 (24000/1001) FPS
Color space : YUV
Chroma subsampling : 4:2:0
Bit depth : 8 bits
Bits/(Pixel*Frame) : 0.054
Stream size : 607 MiB (93%)
Default : Yes
Forced : No
Color range : Limited
Color primaries : BT.709
Transfer characteristics : BT.709
Matrix coefficients : BT.709

Audio
ID : 2
Format : AAC LC SBR
Commercial name : HE-AAC
Format settings : Explicit
Codec ID : A_AAC-2
Duration : 1 h 35 min
Bit rate : 68.3 kb/s
Channel(s) : 2 channels
Channel layout : L R
Sampling rate : 48.0 kHz
Frame rate : 23.438 FPS (2048 SPF)
Compression mode : Lossy
Delay relative to video : 23 ms
Stream size : 46.9 MiB (7%)
Language : English
Default : Yes
Forced : No

Text
ID : 3
Format : UTF-8
Codec ID : S_TEXT/UTF8
Codec ID/Info : UTF-8 Plain Text
Duration : 1 h 33 min
Bit rate : 53 b/s
Count of elements : 1263
Stream size : 36.5 KiB (0%)
Language : English
Default : Yes
Forced : No

[collapse]
Download Link(s)

Download

Direct download files get automatically deleted after a month or so. Posted on : 03/19/2021

[collapse]
Magnet Link

Magnet

Happily.2021.1080p.WEBRip.DD5.1.x264-CM- 5.22 GB

[collapse]

You may also like...

error: nah :p~