Head Count (2018)

1h 30min | Horror, Mystery, Thriller | 24 September 2018 (USA)

A group of teenagers unknowingly summon a paranormal presence during their weekend trip to the Joshua Tree desert. This monster mimics their appearances to hide among them and seeks to separate them into groups of five to complete its deadly ritual.

Watch trailer

Media information

General
Format : Matroska
Format version : Version 4
File size : 750 MiB
Duration : 1 h 29 min
Overall bit rate : 1 167 kb/s
Movie name : Head.Count.2018.720p.WEB-DL.2CH.x264.AVC
Encoded date : UTC 2019-06-03 10:29:22
Writing application : mkvmerge v34.0.0 (‘Sight and Seen’) 32-bit
Writing library : libebml v1.3.7 + libmatroska v1.5.0

Video
ID : 1
Format : AVC
Format/Info : Advanced Video Codec
Format profile : [email protected]
Format settings : CABAC / 5 Ref Frames
Format settings, CABAC : Yes
Format settings, Reference frames : 5 frames
Codec ID : V_MPEG4/ISO/AVC
Duration : 1 h 29 min
Bit rate : 1 102 kb/s
Width : 1 280 pixels
Height : 536 pixels
Display aspect ratio : 2.40:1
Frame rate mode : Constant
Frame rate : 23.976 (24000/1001) FPS
Color space : YUV
Chroma subsampling : 4:2:0
Bit depth : 8 bits
Scan type : Progressive
Bits/(Pixel*Frame) : 0.067
Stream size : 707 MiB (94%)
Default : Yes
Forced : No

Audio
ID : 2
Format : AAC LC SBR
Commercial name : HE-AAC
Format settings : Explicit
Codec ID : A_AAC-2
Duration : 1 h 29 min
Bit rate : 64.0 kb/s
Channel(s) : 2 channels
Channel layout : L R
Sampling rate : 48.0 kHz
Frame rate : 23.438 FPS (2048 SPF)
Compression mode : Lossy
Delay relative to video : 1 ms
Stream size : 41.1 MiB (5%)
Language : English
Default : Yes
Forced : No

Text
ID : 3
Format : UTF-8
Codec ID : S_TEXT/UTF8
Codec ID/Info : UTF-8 Plain Text
Duration : 1 h 25 min
Bit rate : 81 b/s
Count of elements : 1390
Stream size : 51.1 KiB (0%)
Language : English
Default : Yes
Forced : No

[collapse]
Download Link(s)

Download

Direct download files get automatically deleted after a month or so. Posted on : 06/03/2019

[collapse]
Magnet Link

Magnet

Head.Count.2018.1080p.WEB-DL.DD5.1.H264-FGT-3.14 GB

[collapse]

You may also like...

error: nah :p~