Head Full of Honey (2018)

PG-13 | 2h 19min | Comedy, Drama | 21 March 2019 (Germany)

A man suffering from Alzheimer’s embarks on a final road trip with his granddaughter.

Watch trailer

Media information

General
Format : Matroska
Format version : Version 4
File size : 1.10 GiB
Duration : 2 h 11 min
Overall bit rate : 1 195 kb/s
Movie name : Head.Full.of.Honey.2018.720p.10bit.BluRay.6CH.x265.HEVC
Encoded date : UTC 2019-09-07 14:30:17
Writing application : mkvmerge v37.0.0 (‘Leave It’) 32-bit
Writing library : libebml v1.3.9 + libmatroska v1.5.2

Video
ID : 1
Format : HEVC
Format/Info : High Efficiency Video Coding
Format profile : Main [email protected]@Main
Codec ID : V_MPEGH/ISO/HEVC
Duration : 2 h 11 min
Bit rate : 983 kb/s
Width : 1 280 pixels
Height : 536 pixels
Display aspect ratio : 2.40:1
Frame rate mode : Constant
Frame rate : 23.976 (24000/1001) FPS
Color space : YUV
Chroma subsampling : 4:2:0
Bit depth : 10 bits
Bits/(Pixel*Frame) : 0.060
Stream size : 927 MiB (82%)
Default : Yes
Forced : No

Audio
ID : 2
Format : AAC LC SBR
Commercial name : HE-AAC
Format settings : Explicit
Codec ID : A_AAC-2
Duration : 2 h 11 min
Bit rate : 209 kb/s
Channel(s) : 6 channels
Channel layout : C L R Ls Rs LFE
Sampling rate : 48.0 kHz
Frame rate : 23.438 FPS (2048 SPF)
Compression mode : Lossy
Delay relative to video : 23 ms
Stream size : 198 MiB (18%)
Language : English
Default : Yes
Forced : No

Text
ID : 3
Format : UTF-8
Codec ID : S_TEXT/UTF8
Codec ID/Info : UTF-8 Plain Text
Duration : 2 h 10 min
Bit rate : 73 b/s
Count of elements : 2254
Stream size : 70.0 KiB (0%)
Language : English
Default : Yes
Forced : No

[collapse]
Download Link(s)

Download

Direct download files get automatically deleted after a month or so. Posted on : 09/08/2019

[collapse]
Magnet Link

Magnet

Head.Full.of.Honey.2018.1080p.BluRay.REMUX.AVC.DTS-HD.MA.5.1-FGT-32.97 GB

[collapse]

You may also like...

error: nah :p~