Headhunters (2011)

R | 1h 36min | Crime, Drama, Thriller | 26 August 2011 (Norway) | Hodejegerne (original title)

An accomplished headhunter risks everything to obtain a valuable painting owned by a former mercenary.

Watch trailer

Media information

General
Format : Matroska
Format version : Version 4 / Version 2
File size : 364 MiB
Duration : 1 h 40 min
Overall bit rate : 509 kb/s
Movie name : Headhunters2011.720p.10bit.BluRay.2CH.x265.HEVC
Encoded date : UTC 2018-04-04 17:33:11
Writing application : mkvmerge v22.0.0 (‘At The End Of The World’) 32-bit
Writing library : libebml v1.3.5 + libmatroska v1.4.8
Writing frontend : StaxRip v1.6.0.7

Video
ID : 1
Format : HEVC
Format/Info : High Efficiency Video Coding
Format profile : Main [email protected]@Main
Codec ID : V_MPEGH/ISO/HEVC
Duration : 1 h 40 min
Bit rate : 455 kb/s
Width : 1 280 pixels
Height : 532 pixels
Display aspect ratio : 2.40:1
Frame rate mode : Constant
Frame rate : 24.000 FPS
Color space : YUV
Chroma subsampling : 4:2:0
Bit depth : 10 bits
Bits/(Pixel*Frame) : 0.028
Stream size : 325 MiB (89%)
Default : Yes
Forced : No

Audio
ID : 2
Format : Opus
Codec ID : A_OPUS
Duration : 1 h 40 min
Bit rate : 52.0 kb/s
Channel(s) : 2 channels
Channel positions : Front: L R
Sampling rate : 48.0 kHz
Frame rate : 50.000 FPS (960 SPF)
Compression mode : Lossy
Stream size : 37.2 MiB (10%)
Language : Norwegian Bokmal
Default : No
Forced : No

Text
ID : 3
Format : UTF-8
Codec ID : S_TEXT/UTF8
Codec ID/Info : UTF-8 Plain Text
Duration : 1 h 36 min
Bit rate : 34 b/s
Count of elements : 596
Stream size : 24.5 KiB (0%)
Language : English
Default : Yes
Forced : No

[collapse]
Download Link(s)

Download

[RE-UP]-Direct download files get automatically deleted after a month or so. Posted on : 09/08/2018

[collapse]
Magnet Link

Magnet

Source : Headhunters.2011.1080p.BluRay.x264-PFa-7.64 GB

[collapse]

You may also like...

error: nah :p~