Heist (2015)

R | 1h 33min | Action, Crime, Thriller | 11 November 2015 (Philippines)

A father is without the means to pay for his daughter’s medical treatment. As a last resort, he partners with a greedy co-worker to rob a casino. When things go awry they’re forced to hijack a city bus.

Watch trailer

Media information

General
Format : Matroska
Format version : Version 4 / Version 2
File size : 568 MiB
Duration : 1 h 32 min
Overall bit rate : 860 kb/s
Movie name : Heist.2015.720p.BluRay.2CH.x265.HEVC
Encoded date : UTC 2018-07-17 10:02:28
Writing application : mkvmerge v25.0.0 (‘Prog Noir’) 32-bit
Writing library : libebml v1.3.6 + libmatroska v1.4.9

Video
ID : 1
Format : HEVC
Format/Info : High Efficiency Video Coding
Format profile : [email protected]@Main
Codec ID : V_MPEGH/ISO/HEVC
Duration : 1 h 32 min
Bit rate : 778 kb/s
Width : 1 280 pixels
Height : 536 pixels
Display aspect ratio : 2.40:1
Frame rate mode : Constant
Frame rate : 23.976 (24000/1001) FPS
Color space : YUV
Chroma subsampling : 4:2:0
Bit depth : 8 bits
Bits/(Pixel*Frame) : 0.047
Stream size : 514 MiB (90%)
Default : Yes
Forced : No
Color range : Limited
Color primaries : BT.709
Transfer characteristics : BT.709
Matrix coefficients : BT.709

Audio
ID : 2
Format : AAC
Format/Info : Advanced Audio Codec
Format profile : HE-AAC / LC
Format settings : NBC
Codec ID : A_AAC-5
Duration : 1 h 32 min
Bit rate : 80.2 kb/s
Channel(s) : 2 channels
Channel positions : Front: L R
Sampling rate : 48.0 kHz / 24.0 kHz
Frame rate : 23.438 FPS (1024 SPF)
Compression mode : Lossy
Delay relative to video : -105 ms
Stream size : 53.0 MiB (9%)
Title : Stereo
Language : English
Default : Yes
Forced : No

Text
ID : 3
Format : UTF-8
Codec ID : S_TEXT/UTF8
Codec ID/Info : UTF-8 Plain Text
Duration : 1 h 24 min
Bit rate : 76 b/s
Count of elements : 1102
Stream size : 47.0 KiB (0%)
Default : Yes
Forced : No

[collapse]
Download Link(s)

Download

Direct download files get automatically deleted after a month or so. Posted on : 07/17/2018

[collapse]
Magnet Link

Magnet

Source : Heist.2015.1080p.BluRay.x264-VeDeTT-6.56 GB

[collapse]

You may also like...

error: nah :p~