Hellboy II: The Golden Army (2008)

PG-13 | 2h | Action, Adventure, Fantasy | 11 July 2008 (USA)

The mythical world starts a rebellion against humanity in order to rule the Earth, so Hellboy (Ron Perlman) and his team must save the world from the rebellious creatures.

Watch trailer

Media information

General
Format : Matroska
Format version : Version 4
File size : 1.07 GiB
Duration : 1 h 59 min
Overall bit rate : 1 275 kb/s
Movie name : Hellboy.II.The.Golden.Army.2008.720p.10bit.BluRay.6CH.x265.HEVC

Video
ID : 1
Format : HEVC
Format/Info : High Efficiency Video Coding
Format profile : Main [email protected][email protected]
Codec ID : V_MPEGH/ISO/HEVC
Duration : 1 h 59 min
Bit rate : 1 043 kb/s
Width : 1 280 pixels
Height : 688 pixels
Display aspect ratio : 1.85:1
Frame rate mode : Constant
Frame rate : 23.976 (24000/1001) FPS
Color space : YUV
Chroma subsampling : 4:2:0
Bit depth : 10 bits
Bits/(Pixel*Frame) : 0.049
Stream size : 893 MiB (82%)
Default : Yes
Forced : No

Audio
ID : 2
Format : AAC LC SBR
Commercial name : HE-AAC
Format settings : Explicit
Codec ID : A_AAC-2
Duration : 1 h 59 min
Bit rate : 230 kb/s
Channel(s) : 6 channels
Channel layout : C L R Ls Rs LFE
Sampling rate : 48.0 kHz
Frame rate : 23.438 FPS (2048 SPF)
Compression mode : Lossy
Delay relative to video : 3 ms
Stream size : 197 MiB (18%)
Language : English
Default : Yes
Forced : No

Text
ID : 3
Format : UTF-8
Codec ID : S_TEXT/UTF8
Codec ID/Info : UTF-8 Plain Text
Duration : 1 h 50 min
Bit rate : 51 b/s
Count of elements : 1249
Stream size : 42.1 KiB (0%)
Language : English
Default : Yes
Forced : No

[collapse]
Download Link(s)

Download

[RE-UP]-Direct download files get automatically deleted after a month or so. Posted on: 04/10/2021

[collapse]
Magnet Link

Magnet

Hellboy.II.The.Golden.Army.2008.REMASTERED.1080p.BluRay.x264.DTS-X.7.1-SWTYBLZ-17.57 GB

[collapse]

You may also like...

error: nah :p~