High School Musical 3: Senior Year (2008)

G | 1h 52min | Comedy, Drama, Family | 24 October 2008 (USA)

As seniors in high school, Troy and Gabriella struggle with the idea of being separated from one another as college approaches. Along with the rest of the Wildcats, they stage a spring musical to address their experiences, hopes and fears about their future.

Watch trailer

Media information

General
Format : Matroska
Format version : Version 4
File size : 1.12 GiB
Duration : 1 h 56 min
Overall bit rate : 1 368 kb/s
Movie name : High.School.Musical.3.Senior.Year.2008.EXTENDED.720p.BluRay.2CH.x265.HEVC
Encoded date : UTC 2019-09-05 19:01:06
Writing application : mkvmerge v37.0.0 (‘Leave It’) 32-bit
Writing library : libebml v1.3.9 + libmatroska v1.5.2

Video
ID : 1
Format : HEVC
Format/Info : High Efficiency Video Coding
Format profile : [email protected]@Main
Codec ID : V_MPEGH/ISO/HEVC
Duration : 1 h 56 min
Bit rate : 1 301 kb/s
Width : 1 280 pixels
Height : 694 pixels
Display aspect ratio : 1.85:1
Frame rate mode : Constant
Frame rate : 23.976 (24000/1001) FPS
Color space : YUV
Chroma subsampling : 4:2:0
Bit depth : 8 bits
Bits/(Pixel*Frame) : 0.061
Stream size : 1.06 GiB (95%)
Default : Yes
Forced : No
Color range : Limited
Color primaries : BT.709
Transfer characteristics : BT.709
Matrix coefficients : BT.709

Audio
ID : 2
Format : AAC LC
Codec ID : A_AAC-2
Duration : 1 h 56 min
Bit rate : 64.4 kb/s
Channel(s) : 2 channels
Channel layout : L R
Sampling rate : 48.0 kHz
Frame rate : 46.875 FPS (1024 SPF)
Compression mode : Lossy
Delay relative to video : -64 ms
Stream size : 53.8 MiB (5%)
Title : Stereo
Language : English
Default : Yes
Forced : No

Text
ID : 3
Format : ASS
Codec ID : S_TEXT/ASS
Duration : 1 h 52 min
Bit rate : 102 b/s
Count of elements : 1550
Compression mode : Lossless
Stream size : 84.9 KiB (0%)
Language : English
Default : Yes
Forced : Yes

[collapse]
Download Link(s)

Download

Direct download files get automatically deleted after a month or so. Posted on : 09/06/2019

[collapse]
Magnet Link

Magnet

High.School.Musical.3.Senior.Year.2008.EXTENDED.1080p.BluRay.x264-iLLUSiON-8.74 GB

[collapse]

You may also like...

error: nah :p~