Honor Up (2018)

R | 1h 24min | Action, Adventure | 16 February 2018 (USA)

A drug lord’s lieutenant struggles to protect his crime family and his own honor after a shootout.

Watch trailer

Media information

General
Format : Matroska
Format version : Version 4 / Version 2
File size : 606 MiB
Duration : 1 h 24 min
Overall bit rate : 1 007 kb/s
Movie name : Honor.Up.2018.720p.WEB-DL.2CH.x264.AVC
Encoded date : UTC 2018-03-02 17:30:47
Writing application : mkvmerge v21.0.0 (‘Tardigrades Will Inherit The Earth’) 32-bit
Writing library : libebml v1.3.5 + libmatroska v1.4.8

Video
ID : 1
Format : AVC
Format/Info : Advanced Video Codec
Format profile : [email protected]
Format settings : CABAC / 4 Ref Frames
Format settings, CABAC : Yes
Format settings, RefFrames : 4 frames
Codec ID : V_MPEG4/ISO/AVC
Duration : 1 h 24 min
Bit rate : 904 kb/s
Width : 1 280 pixels
Height : 540 pixels
Display aspect ratio : 2.40:1
Frame rate mode : Constant
Frame rate : 23.976 (24000/1001) FPS
Color space : YUV
Chroma subsampling : 4:2:0
Bit depth : 8 bits
Scan type : Progressive
Bits/(Pixel*Frame) : 0.055
Stream size : 544 MiB (90%)
Writing library : x264 core 152 r2851 ba24899
Default : Yes
Forced : No

Audio
ID : 2
Format : AAC
Format/Info : Advanced Audio Codec
Format profile : LC
Codec ID : A_AAC-2
Duration : 1 h 24 min
Bit rate : 101 kb/s
Channel(s) : 2 channels
Channel positions : Front: L R
Sampling rate : 48.0 kHz
Frame rate : 46.875 FPS (1024 SPF)
Compression mode : Lossy
Delay relative to video : -42 ms
Stream size : 60.9 MiB (10%)
Language : English
Default : Yes
Forced : No

Text
ID : 3
Format : UTF-8
Codec ID : S_TEXT/UTF8
Codec ID/Info : UTF-8 Plain Text
Duration : 1 h 23 min
Bit rate : 99 b/s
Count of elements : 1620
Stream size : 60.6 KiB (0%)
Default : Yes
Forced : No

[collapse]
Download Link(s)

Download

Direct download files get automatically deleted after a month or so. Posted on : 03/02/2018

[collapse]
Magnet Link

Magnet

Source : Honor.Up.2018.720p.WEB-DL.DD5.1.X264-CMRG-2.0 GB

[collapse]

You may also like...

error: nah :p~