Hope Springs Eternal (2018)

PG | 1h 18min | Comedy, Drama | 10 August 2018 (USA)

When 18 year old Hope Gracin suddenly finds herself in remission from end-stage cancer, she must learn to live without an expiration date.

Watch trailer

Media information

General
Format : Matroska
Format version : Version 4 / Version 2
File size : 631 MiB
Duration : 1 h 18 min
Overall bit rate : 1 122 kb/s
Movie name : Hope.Springs.Eternal.2018.720p.WEB-DL.2CH.x264.AVC
Encoded date : UTC 2018-08-10 15:52:20
Writing application : mkvmerge v25.0.0 (‘Prog Noir’) 32-bit
Writing library : libebml v1.3.6 + libmatroska v1.4.9

Video
ID : 1
Format : AVC
Format/Info : Advanced Video Codec
Format profile : [email protected]
Format settings : CABAC / 4 Ref Frames
Format settings, CABAC : Yes
Format settings, RefFrames : 4 frames
Codec ID : V_MPEG4/ISO/AVC
Duration : 1 h 18 min
Bit rate : 1 000 kb/s
Width : 1 280 pixels
Height : 720 pixels
Display aspect ratio : 16:9
Frame rate mode : Constant
Frame rate : 23.976 (24000/1001) FPS
Color space : YUV
Chroma subsampling : 4:2:0
Bit depth : 8 bits
Scan type : Progressive
Bits/(Pixel*Frame) : 0.045
Stream size : 558 MiB (88%)
Default : Yes
Forced : No
Color range : Limited
Color primaries : BT.709
Transfer characteristics : BT.709
Matrix coefficients : BT.709

Audio
ID : 2
Format : AAC
Format/Info : Advanced Audio Codec
Format profile : HE-AAC / LC
Format settings : NBC
Codec ID : A_AAC-5
Duration : 1 h 18 min
Bit rate : 128 kb/s
Channel(s) : 2 channels
Channel positions : Front: L R
Sampling rate : 48.0 kHz / 24.0 kHz
Frame rate : 23.438 FPS (1024 SPF)
Compression mode : Lossy
Delay relative to video : -105 ms
Stream size : 72.0 MiB (11%)
Language : English
Default : Yes
Forced : No

Text
ID : 3
Format : UTF-8
Codec ID : S_TEXT/UTF8
Codec ID/Info : UTF-8 Plain Text
Duration : 1 h 17 min
Bit rate : 88 b/s
Count of elements : 1596
Stream size : 50.5 KiB (0%)
Language : English
Default : Yes
Forced : No

[collapse]
Download Link(s)

Download

Direct download files get automatically deleted after a month or so. Posted on : 08/10/2018

[collapse]
Magnet Link

Magnet

Source : Hope.Springs.Eternal.2018.1080p.WEB-DL.DD5.1.H264-FGT-3.07 GB

[collapse]

You may also like...

error: nah :p~