How to Get Over a Breakup (2018)

Soltera Codiciada (original title)|TV-MA | 1h 44min | Comedy | 31 May 2018 (Peru)

A heartbroken ad copywriter living in Lima, Peru, is inspired to write a blog about life as a single woman and is surprised by her website’s success.

Watch trailer

Media information

General
Format : Matroska
Format version : Version 4
File size : 849 MiB
Duration : 1 h 44 min
Overall bit rate : 1 134 kb/s
Movie name : How.to.Get.Over.a.Breakup.2018.720p.WEB-DL.2CH.x264.AVC
Encoded date : UTC 2018-12-02 16:13:08
Writing application : mkvmerge v29.0.0 (‘Like It Or Not’) 32-bit
Writing library : libebml v1.3.6 + libmatroska v1.4.9

Video
ID : 1
Format : AVC
Format/Info : Advanced Video Codec
Format profile : [email protected]
Format settings : CABAC / 4 Ref Frames
Format settings, CABAC : Yes
Format settings, RefFrames : 4 frames
Codec ID : V_MPEG4/ISO/AVC
Duration : 1 h 44 min
Bit rate : 1 024 kb/s
Width : 1 280 pixels
Height : 542 pixels
Display aspect ratio : 2.35:1
Frame rate mode : Constant
Frame rate : 23.976 (24000/1001) FPS
Color space : YUV
Chroma subsampling : 4:2:0
Bit depth : 8 bits
Scan type : Progressive
Bits/(Pixel*Frame) : 0.062
Stream size : 749 MiB (88%)
Default : Yes
Forced : No
Color range : Limited
Color primaries : BT.709
Transfer characteristics : BT.709
Matrix coefficients : BT.709

Audio
ID : 2
Format : AAC LC SBR
Commercial name : HE-AAC
Format settings : NBC
Codec ID : A_AAC-5
Duration : 1 h 44 min
Bit rate : 128 kb/s
Channel(s) : 2 channels
Channel layout : L R
Sampling rate : 48.0 kHz
Frame rate : 23.438 FPS (2048 SPF)
Compression mode : Lossy
Delay relative to video : -105 ms
Stream size : 95.9 MiB (11%)
Language : English
Default : Yes
Forced : No

Text #1
ID : 3
Format : ASS
Codec ID : S_TEXT/ASS
Codec ID/Info : Advanced Sub Station Alpha
Duration : 1 h 38 min
Bit rate : 132 b/s
Count of elements : 1680
Compression mode : Lossless
Stream size : 95.7 KiB (0%)
Language : English
Default : No
Forced : No

Text #2
ID : 4
Format : ASS
Codec ID : S_TEXT/ASS
Codec ID/Info : Advanced Sub Station Alpha
Duration : 1 h 42 min
Bit rate : 2 b/s
Count of elements : 45
Compression mode : Lossless
Stream size : 1.74 KiB (0%)
Language : English
Default : No
Forced : No

Text #3
ID : 5
Format : ASS
Codec ID : S_TEXT/ASS
Codec ID/Info : Advanced Sub Station Alpha
Duration : 1 h 38 min
Bit rate : 143 b/s
Count of elements : 1997
Compression mode : Lossless
Stream size : 104 KiB (0%)
Language : Spanish
Default : No
Forced : No

Text #4
ID : 6
Format : ASS
Codec ID : S_TEXT/ASS
Codec ID/Info : Advanced Sub Station Alpha
Duration : 1 h 43 min
Bit rate : 123 b/s
Count of elements : 1629
Compression mode : Lossless
Stream size : 93.5 KiB (0%)
Language : Spanish
Default : No
Forced : No

Text #5
ID : 7
Format : ASS
Codec ID : S_TEXT/ASS
Codec ID/Info : Advanced Sub Station Alpha
Duration : 1 h 43 min
Bit rate : 110 b/s
Count of elements : 1564
Compression mode : Lossless
Stream size : 83.9 KiB (0%)
Language : French
Default : No
Forced : No

Text #6
ID : 8
Format : ASS
Codec ID : S_TEXT/ASS
Codec ID/Info : Advanced Sub Station Alpha
Duration : 1 h 43 min
Bit rate : 105 b/s
Count of elements : 1494
Compression mode : Lossless
Stream size : 79.9 KiB (0%)
Language : Dutch
Default : No
Forced : No

Text #7
ID : 9
Format : ASS
Codec ID : S_TEXT/ASS
Codec ID/Info : Advanced Sub Station Alpha
Duration : 1 h 43 min
Bit rate : 103 b/s
Count of elements : 1603
Compression mode : Lossless
Stream size : 78.6 KiB (0%)
Language : Danish
Default : No
Forced : No

Text #8
ID : 10
Format : ASS
Codec ID : S_TEXT/ASS
Codec ID/Info : Advanced Sub Station Alpha
Duration : 1 h 43 min
Bit rate : 99 b/s
Count of elements : 1340
Compression mode : Lossless
Stream size : 75.8 KiB (0%)
Language : Norwegian
Default : No
Forced : No

Text #9
ID : 11
Format : ASS
Codec ID : S_TEXT/ASS
Codec ID/Info : Advanced Sub Station Alpha
Duration : 1 h 43 min
Bit rate : 111 b/s
Count of elements : 1604
Compression mode : Lossless
Stream size : 84.5 KiB (0%)
Language : Portuguese
Default : No
Forced : No

Text #10
ID : 12
Format : ASS
Codec ID : S_TEXT/ASS
Codec ID/Info : Advanced Sub Station Alpha
Duration : 1 h 43 min
Bit rate : 113 b/s
Count of elements : 1600
Compression mode : Lossless
Stream size : 86.4 KiB (0%)
Language : Italian
Default : No
Forced : No

Text #11
ID : 13
Format : ASS
Codec ID : S_TEXT/ASS
Codec ID/Info : Advanced Sub Station Alpha
Duration : 1 h 43 min
Bit rate : 113 b/s
Count of elements : 1577
Compression mode : Lossless
Stream size : 86.0 KiB (0%)
Language : Portuguese
Default : No
Forced : No

Text #12
ID : 14
Format : ASS
Codec ID : S_TEXT/ASS
Codec ID/Info : Advanced Sub Station Alpha
Duration : 1 h 43 min
Bit rate : 108 b/s
Count of elements : 1604
Compression mode : Lossless
Stream size : 82.3 KiB (0%)
Language : Polish
Default : No
Forced : No

Text #13
ID : 15
Format : ASS
Codec ID : S_TEXT/ASS
Codec ID/Info : Advanced Sub Station Alpha
Duration : 1 h 43 min
Bit rate : 165 b/s
Count of elements : 1607
Compression mode : Lossless
Stream size : 126 KiB (0%)
Default : No
Forced : No

Text #14
ID : 16
Format : ASS
Codec ID : S_TEXT/ASS
Codec ID/Info : Advanced Sub Station Alpha
Duration : 1 h 43 min
Bit rate : 156 b/s
Count of elements : 1606
Compression mode : Lossless
Stream size : 119 KiB (0%)
Default : No
Forced : No

Text #15
ID : 17
Format : ASS
Codec ID : S_TEXT/ASS
Codec ID/Info : Advanced Sub Station Alpha
Duration : 1 h 43 min
Bit rate : 111 b/s
Count of elements : 1606
Compression mode : Lossless
Stream size : 84.4 KiB (0%)
Language : German
Default : No
Forced : No

Text #16
ID : 18
Format : ASS
Codec ID : S_TEXT/ASS
Codec ID/Info : Advanced Sub Station Alpha
Duration : 1 h 43 min
Bit rate : 107 b/s
Count of elements : 1520
Compression mode : Lossless
Stream size : 81.4 KiB (0%)
Language : Swedish
Default : No
Forced : No

Text #17
ID : 19
Format : ASS
Codec ID : S_TEXT/ASS
Codec ID/Info : Advanced Sub Station Alpha
Duration : 1 h 43 min
Bit rate : 100 b/s
Count of elements : 1160
Compression mode : Lossless
Stream size : 76.5 KiB (0%)
Language : Finnish
Default : No
Forced : No

Text #18
ID : 20
Format : ASS
Codec ID : S_TEXT/ASS
Codec ID/Info : Advanced Sub Station Alpha
Duration : 1 h 43 min
Bit rate : 107 b/s
Count of elements : 1604
Compression mode : Lossless
Stream size : 81.6 KiB (0%)
Default : No
Forced : No

Text #19
ID : 21
Format : ASS
Codec ID : S_TEXT/ASS
Codec ID/Info : Advanced Sub Station Alpha
Duration : 1 h 43 min
Bit rate : 112 b/s
Count of elements : 1606
Compression mode : Lossless
Stream size : 85.6 KiB (0%)
Language : Turkish
Default : No
Forced : No

[collapse]
Download Link(s)

Download

Direct download files get automatically deleted after a month or so. Posted on : 12/02/2018

[collapse]
Magnet Link

Magnet

How.to.Get.Over.a.Breakup.2018.DUBBED.1080p.NF.WEBRip.DDP5.1.x264-CM-4.02 GB

[collapse]

You may also like...

error: nah :p~