Hurricane (2018)

1h 47min | Drama, War | 17 August 2018 (Poland)

Hurricane (Squadron 303) is the story of a group of brave Poles who fought in the skies over England in WW2, not just to keep Great Britain free from the Nazis, but also to keep alive the very idea of their own country, which had existed in its modern form for barely twenty years before it was crushed between the opposing jaws of Germany and Russia. Equipped with the almost-obsolete Hurricane and (with some initial reluctance) given RAF blue uniforms, while they fought, Poland lived.

Watch trailer

Media information

General
Format : Matroska
Format version : Version 4
File size : 625 MiB
Duration : 1 h 47 min
Overall bit rate : 813 kb/s
Movie name : Hurricane.2018.720p.WEB-DL.2CH.x265.HEVC
Encoded date : UTC 2018-09-09 15:20:45
Writing application : mkvmerge v26.0.0 (‘In The Game’) 32-bit
Writing library : libebml v1.3.6 + libmatroska v1.4.9

Video
ID : 1
Format : HEVC
Format/Info : High Efficiency Video Coding
Format profile : [email protected]@Main
Codec ID : V_MPEGH/ISO/HEVC
Duration : 1 h 47 min
Bit rate : 743 kb/s
Width : 1 280 pixels
Height : 528 pixels
Display aspect ratio : 2.40:1
Frame rate mode : Constant
Frame rate : 24.000 FPS
Color space : YUV
Chroma subsampling : 4:2:0
Bit depth : 8 bits
Bits/(Pixel*Frame) : 0.046
Stream size : 572 MiB (92%)
Default : Yes
Forced : No

Audio
ID : 2
Format : AAC LC SBR
Commercial name : HE-AAC
Format settings : Explicit
Codec ID : A_AAC-2
Duration : 1 h 47 min
Bit rate : 66.2 kb/s
Channel(s) : 2 channels
Channel layout : L R
Sampling rate : 48.0 kHz
Frame rate : 23.438 FPS (2048 SPF)
Compression mode : Lossy
Delay relative to video : 23 ms
Stream size : 51.7 MiB (8%)
Language : English
Default : Yes
Forced : No

[collapse]
Download Link(s)

Download

No subs are available

Direct download files get automatically deleted after a month or so. Posted on : 09/09/2018

[collapse]
Magnet Link

Magnet

Source : Hurricane.2018.1080p.WEB-DL.DD5.1.H264-FGT-3.73 GB

[collapse]

You may also like...

error: nah :p~