iGirlfriend (2017)

Not Rated | 1h 25min | Comedy | 15 January 2017 (USA)

A teen comedy about a nerdy teenager who creates an iPhone app to be his girlfriend. When she miraculously comes to life, things go hilariously wrong, and she tries to kill him.

Watch trailer

Media information

General
Format : Matroska
Format version : Version 4
File size : 668 MiB
Duration : 1 h 23 min
Overall bit rate : 1 117 kb/s
Movie name : iGirlfriend.2017.720p.WEB-DL.2CH.x264.AVC
Encoded date : UTC 2018-09-02 11:34:23
Writing application : mkvmerge v26.0.0 (‘In The Game’) 32-bit
Writing library : libebml v1.3.6 + libmatroska v1.4.9

Video
ID : 1
Format : AVC
Format/Info : Advanced Video Codec
Format profile : [email protected]
Format settings : CABAC / 4 Ref Frames
Format settings, CABAC : Yes
Format settings, RefFrames : 4 frames
Codec ID : V_MPEG4/ISO/AVC
Duration : 1 h 23 min
Bit rate : 1 000 kb/s
Width : 1 280 pixels
Height : 720 pixels
Display aspect ratio : 16:9
Frame rate mode : Constant
Frame rate : 23.976 (24000/1001) FPS
Color space : YUV
Chroma subsampling : 4:2:0
Bit depth : 8 bits
Scan type : Progressive
Bits/(Pixel*Frame) : 0.045
Stream size : 591 MiB (88%)
Default : Yes
Forced : No
Color range : Limited
Color primaries : BT.709
Transfer characteristics : BT.709
Matrix coefficients : BT.709

Audio
ID : 2
Format : AAC LC SBR
Format/Info : Advanced Audio Codec Low Complexity with Spectral Band Replication
Commercial name : HE-AAC
Format settings : NBC
Codec ID : A_AAC-5
Duration : 1 h 23 min
Bit rate : 128 kb/s
Channel(s) : 2 channels
Channel layout : L R
Sampling rate : 48.0 kHz
Frame rate : 23.438 FPS (2048 SPF)
Compression mode : Lossy
Delay relative to video : -105 ms
Stream size : 76.6 MiB (11%)
Language : English
Default : Yes
Forced : No

Text
ID : 3
Format : ASS
Codec ID : S_TEXT/ASS
Codec ID/Info : Advanced Sub Station Alpha
Duration : 1 h 19 min
Bit rate : 99 b/s
Count of elements : 1286
Compression mode : Lossless
Stream size : 58.3 KiB (0%)
Language : English
Default : No
Forced : No

[collapse]
Download Link(s)

Download

Direct download files get automatically deleted after a month or so. Posted on : 09/02/2018

[collapse]
Magnet Link

Magnet

Source : iGirlfriend.2017.1080p.AMZN.WEBRip.DDP2.0.x264-NTG-6.65 GB

[collapse]

You may also like...

error: nah :p~