In the Line of Fire (1993)

R | 2h 8min | Action, Crime, Drama | 9 July 1993 (USA)

Secret Service agent Frank Horrigan couldn’t save Kennedy, but he’s determined not to let a clever assassin take out this president.

Watch trailer

Media information

General
Format : Matroska
Format version : Version 4
File size : 1.13 GiB
Duration : 2 h 8 min
Overall bit rate : 1 262 kb/s
Movie name : In.The.Line.Of.Fire.1993.Remastered.1080p.BluRay.6CH.x265.HEVC
Encoded date : UTC 2019-01-20 00:19:56
Writing application : mkvmerge v30.1.0 (‘Forever And More’) 32-bit
Writing library : libebml v1.3.6 + libmatroska v1.4.9

Video
ID : 1
Format : HEVC
Format/Info : High Efficiency Video Coding
Format profile : [email protected]@Main
Codec ID : V_MPEGH/ISO/HEVC
Duration : 2 h 8 min
Bit rate : 1 067 kb/s
Width : 1 920 pixels
Height : 800 pixels
Display aspect ratio : 2.40:1
Frame rate mode : Constant
Frame rate : 23.976 (24000/1001) FPS
Color space : YUV
Chroma subsampling : 4:2:0
Bit depth : 8 bits
Bits/(Pixel*Frame) : 0.029
Stream size : 981 MiB (85%)
Default : Yes
Forced : No
Color range : Limited
Color primaries : BT.709
Transfer characteristics : BT.709
Matrix coefficients : BT.709

Audio
ID : 2
Format : AAC LC
Codec ID : A_AAC-2
Duration : 2 h 8 min
Bit rate : 192 kb/s
Channel(s) : 6 channels
Channel layout : L R C Cb Rls Rb
Sampling rate : 48.0 kHz
Frame rate : 46.875 FPS (1024 SPF)
Compression mode : Lossy
Delay relative to video : -26 ms
Stream size : 177 MiB (15%)
Title : Surround
Language : English
Default : Yes
Forced : No

Text
ID : 3
Format : ASS
Codec ID : S_TEXT/ASS
Duration : 2 h 1 min
Bit rate : 88 b/s
Count of elements : 1219
Compression mode : Lossless
Stream size : 79.0 KiB (0%)
Language : English
Default : Yes
Forced : Yes

[collapse]
Download Link(s)

Part01 Part02

Direct download files get automatically deleted after a month or so. Posted on : 01/20/2019

[collapse]
Magnet Link

Magnet

In the Line of Fire (1993)-Clint Eastwood-1080p-H264-AC 3-2.8 GB

[collapse]

Media information

General
Format : Matroska
Format version : Version 4
File size : 512 MiB
Duration : 2 h 8 min
Overall bit rate : 557 kb/s
Movie name : In.The.Line.Of.Fire.1993.Remastered.720p.BluRay.2CH.x265.HEVC
Encoded date : UTC 2019-01-18 18:21:29
Writing application : mkvmerge v30.1.0 (‘Forever And More’) 32-bit
Writing library : libebml v1.3.6 + libmatroska v1.4.9

Video
ID : 1
Format : HEVC
Format/Info : High Efficiency Video Coding
Format profile : [email protected]@Main
Codec ID : V_MPEGH/ISO/HEVC
Duration : 2 h 8 min
Bit rate : 490 kb/s
Width : 1 280 pixels
Height : 534 pixels
Display aspect ratio : 2.40:1
Frame rate mode : Constant
Frame rate : 23.976 (24000/1001) FPS
Color space : YUV
Chroma subsampling : 4:2:0
Bit depth : 8 bits
Bits/(Pixel*Frame) : 0.030
Stream size : 451 MiB (88%)
Default : Yes
Forced : No
Color range : Limited
Color primaries : BT.709
Transfer characteristics : BT.709
Matrix coefficients : BT.709

Audio
ID : 2
Format : AAC LC
Codec ID : A_AAC-2
Duration : 2 h 8 min
Bit rate : 64.4 kb/s
Channel(s) : 2 channels
Channel layout : L R
Sampling rate : 48.0 kHz
Frame rate : 46.875 FPS (1024 SPF)
Compression mode : Lossy
Delay relative to video : -26 ms
Stream size : 59.2 MiB (12%)
Title : Stereo
Language : English
Default : Yes
Forced : No

Text
ID : 3
Format : ASS
Codec ID : S_TEXT/ASS
Duration : 2 h 1 min
Bit rate : 88 b/s
Count of elements : 1219
Compression mode : Lossless
Stream size : 79.0 KiB (0%)
Language : English
Default : Yes
Forced : Yes

[collapse]
Download Link(s)

Download

Direct download files get automatically deleted after a month or so. Posted on : 01/19/2019

[collapse]
Magnet Link

Magnet

In the Line of Fire (1993)-Clint Eastwood-1080p-H264-AC 3-2.8 GB

[collapse]

You may also like...

error: nah :p~