In the Tall Grass (2019)

TV-MA | 1h 41min | Drama, Horror, Thriller | 4 October 2019 (USA)

After hearing a young boy’s cry for help, a sister and brother venture into a vast field of tall grass in Kansas but soon discover there may be no way out…and that something evil lurks within.

Watch trailer

Media information

General
Format : Matroska
Format version : Version 4
File size : 960 MiB
Duration : 1 h 41 min
Overall bit rate : 1 317 kb/s
Movie name : In.the.Tall.Grass.2019.720p.10bit.WEBRip.6CH.x265.HEVC
Encoded date : UTC 2019-10-05 09:27:48
Writing application : mkvmerge v37.0.0 (‘Leave It’) 32-bit
Writing library : libebml v1.3.9 + libmatroska v1.5.2

Video
ID : 1
Format : HEVC
Format/Info : High Efficiency Video Coding
Format profile : Main [email protected]@Main
Codec ID : V_MPEGH/ISO/HEVC
Duration : 1 h 41 min
Bit rate : 1 089 kb/s
Width : 1 280 pixels
Height : 536 pixels
Display aspect ratio : 2.40:1
Frame rate mode : Constant
Frame rate : 24.000 FPS
Color space : YUV
Chroma subsampling : 4:2:0
Bit depth : 10 bits
Bits/(Pixel*Frame) : 0.066
Stream size : 793 MiB (83%)
Default : Yes
Forced : No

Audio
ID : 2
Format : AAC LC SBR
Commercial name : HE-AAC
Format settings : Explicit
Codec ID : A_AAC-2
Duration : 1 h 41 min
Bit rate : 223 kb/s
Channel(s) : 6 channels
Channel layout : C L R Ls Rs LFE
Sampling rate : 48.0 kHz
Frame rate : 23.438 FPS (2048 SPF)
Compression mode : Lossy
Delay relative to video : 23 ms
Stream size : 163 MiB (17%)
Language : English
Default : Yes
Forced : No

Text #1
ID : 3
Format : UTF-8
Codec ID : S_TEXT/UTF8
Codec ID/Info : UTF-8 Plain Text
Duration : 1 h 37 min
Bit rate : 42 b/s
Count of elements : 1258
Stream size : 30.5 KiB (0%)
Language : English
Default : Yes
Forced : No

Text #2
ID : 4
Format : UTF-8
Codec ID : S_TEXT/UTF8
Codec ID/Info : UTF-8 Plain Text
Duration : 1 h 38 min
Bit rate : 49 b/s
Count of elements : 1501
Stream size : 35.9 KiB (0%)
Title : SDH
Language : English
Default : No
Forced : No

Text #3
ID : 5
Format : UTF-8
Codec ID : S_TEXT/UTF8
Codec ID/Info : UTF-8 Plain Text
Duration : 1 h 39 min
Bit rate : 63 b/s
Count of elements : 1177
Stream size : 45.7 KiB (0%)
Language : Arabic
Default : No
Forced : No

Text #4
ID : 6
Format : UTF-8
Codec ID : S_TEXT/UTF8
Codec ID/Info : UTF-8 Plain Text
Duration : 1 h 39 min
Bit rate : 33 b/s
Count of elements : 1133
Stream size : 23.9 KiB (0%)
Language : Czech
Default : No
Forced : No

Text #5
ID : 7
Format : UTF-8
Codec ID : S_TEXT/UTF8
Codec ID/Info : UTF-8 Plain Text
Duration : 1 h 39 min
Bit rate : 38 b/s
Count of elements : 1178
Stream size : 27.8 KiB (0%)
Language : Danish
Default : No
Forced : No

Text #6
ID : 8
Format : UTF-8
Codec ID : S_TEXT/UTF8
Codec ID/Info : UTF-8 Plain Text
Duration : 1 h 39 min
Bit rate : 34 b/s
Count of elements : 1144
Stream size : 25.2 KiB (0%)
Language : German
Default : No
Forced : No

Text #7
ID : 9
Format : UTF-8
Codec ID : S_TEXT/UTF8
Codec ID/Info : UTF-8 Plain Text
Duration : 1 h 39 min
Bit rate : 58 b/s
Count of elements : 1154
Stream size : 42.7 KiB (0%)
Language : Greek
Default : No
Forced : No

Text #8
ID : 10
Format : UTF-8
Codec ID : S_TEXT/UTF8
Codec ID/Info : UTF-8 Plain Text
Duration : 1 h 33 min
Bit rate : 38 b/s
Count of elements : 1100
Stream size : 26.2 KiB (0%)
Language : Spanish
Default : No
Forced : No

Text #9
ID : 11
Format : UTF-8
Codec ID : S_TEXT/UTF8
Codec ID/Info : UTF-8 Plain Text
Duration : 1 h 39 min
Bit rate : 33 b/s
Count of elements : 1142
Stream size : 24.0 KiB (0%)
Title : European
Language : Spanish
Default : No
Forced : No

Text #10
ID : 12
Format : UTF-8
Codec ID : S_TEXT/UTF8
Codec ID/Info : UTF-8 Plain Text
Duration : 1 h 39 min
Bit rate : 34 b/s
Count of elements : 1039
Stream size : 25.1 KiB (0%)
Language : Finnish
Default : No
Forced : No

Text #11
ID : 13
Format : UTF-8
Codec ID : S_TEXT/UTF8
Codec ID/Info : UTF-8 Plain Text
Duration : 1 h 39 min
Bit rate : 34 b/s
Count of elements : 1094
Stream size : 24.9 KiB (0%)
Language : French
Default : No
Forced : No

Text #12
ID : 14
Format : UTF-8
Codec ID : S_TEXT/UTF8
Codec ID/Info : UTF-8 Plain Text
Duration : 1 h 39 min
Bit rate : 56 b/s
Count of elements : 1178
Stream size : 41.0 KiB (0%)
Language : Hebrew
Default : No
Forced : No

Text #13
ID : 15
Format : UTF-8
Codec ID : S_TEXT/UTF8
Codec ID/Info : UTF-8 Plain Text
Duration : 1 h 39 min
Bit rate : 100 b/s
Count of elements : 1178
Stream size : 72.8 KiB (0%)
Language : Hindi
Default : No
Forced : No

Text #14
ID : 16
Format : UTF-8
Codec ID : S_TEXT/UTF8
Codec ID/Info : UTF-8 Plain Text
Duration : 1 h 39 min
Bit rate : 37 b/s
Count of elements : 1178
Stream size : 27.2 KiB (0%)
Language : Hungarian
Default : No
Forced : No

Text #15
ID : 17
Format : UTF-8
Codec ID : S_TEXT/UTF8
Codec ID/Info : UTF-8 Plain Text
Duration : 1 h 39 min
Bit rate : 34 b/s
Count of elements : 1157
Stream size : 25.2 KiB (0%)
Language : Indonesian
Default : No
Forced : No

Text #16
ID : 18
Format : UTF-8
Codec ID : S_TEXT/UTF8
Codec ID/Info : UTF-8 Plain Text
Duration : 1 h 38 min
Bit rate : 33 b/s
Count of elements : 1127
Stream size : 24.2 KiB (0%)
Language : Italian
Default : No
Forced : No

Text #17
ID : 19
Format : UTF-8
Codec ID : S_TEXT/UTF8
Codec ID/Info : UTF-8 Plain Text
Duration : 1 h 39 min
Bit rate : 36 b/s
Count of elements : 1132
Stream size : 26.5 KiB (0%)
Language : Japanese
Default : No
Forced : No

Text #18
ID : 20
Format : UTF-8
Codec ID : S_TEXT/UTF8
Codec ID/Info : UTF-8 Plain Text
Duration : 1 h 39 min
Bit rate : 47 b/s
Count of elements : 1164
Stream size : 34.2 KiB (0%)
Language : Korean
Default : No
Forced : No

Text #19
ID : 21
Format : UTF-8
Codec ID : S_TEXT/UTF8
Codec ID/Info : UTF-8 Plain Text
Duration : 1 h 39 min
Bit rate : 35 b/s
Count of elements : 1165
Stream size : 25.8 KiB (0%)
Language : Norwegian Bokmal
Default : No
Forced : No

Text #20
ID : 22
Format : UTF-8
Codec ID : S_TEXT/UTF8
Codec ID/Info : UTF-8 Plain Text
Duration : 1 h 39 min
Bit rate : 31 b/s
Count of elements : 886
Stream size : 22.7 KiB (0%)
Language : Dutch
Default : No
Forced : No

Text #21
ID : 23
Format : UTF-8
Codec ID : S_TEXT/UTF8
Codec ID/Info : UTF-8 Plain Text
Duration : 1 h 39 min
Bit rate : 32 b/s
Count of elements : 1125
Stream size : 23.6 KiB (0%)
Language : Polish
Default : No
Forced : No

Text #22
ID : 24
Format : UTF-8
Codec ID : S_TEXT/UTF8
Codec ID/Info : UTF-8 Plain Text
Duration : 1 h 39 min
Bit rate : 33 b/s
Count of elements : 1154
Stream size : 24.0 KiB (0%)
Language : Portuguese
Default : No
Forced : No

Text #23
ID : 25
Format : UTF-8
Codec ID : S_TEXT/UTF8
Codec ID/Info : UTF-8 Plain Text
Duration : 1 h 32 min
Bit rate : 34 b/s
Count of elements : 1137
Stream size : 23.1 KiB (0%)
Title : Brazilian
Language : Portuguese
Default : No
Forced : No

Text #24
ID : 26
Format : UTF-8
Codec ID : S_TEXT/UTF8
Codec ID/Info : UTF-8 Plain Text
Duration : 1 h 39 min
Bit rate : 38 b/s
Count of elements : 1140
Stream size : 27.6 KiB (0%)
Language : Romanian
Default : No
Forced : No

Text #25
ID : 27
Format : UTF-8
Codec ID : S_TEXT/UTF8
Codec ID/Info : UTF-8 Plain Text
Duration : 1 h 39 min
Bit rate : 55 b/s
Count of elements : 929
Stream size : 40.3 KiB (0%)
Language : Russian
Default : No
Forced : No

Text #26
ID : 28
Format : UTF-8
Codec ID : S_TEXT/UTF8
Codec ID/Info : UTF-8 Plain Text
Duration : 1 h 39 min
Bit rate : 33 b/s
Count of elements : 1048
Stream size : 24.4 KiB (0%)
Language : Swedish
Default : No
Forced : No

Text #27
ID : 29
Format : UTF-8
Codec ID : S_TEXT/UTF8
Codec ID/Info : UTF-8 Plain Text
Duration : 1 h 39 min
Bit rate : 98 b/s
Count of elements : 1161
Stream size : 71.7 KiB (0%)
Language : Thai
Default : No
Forced : No

Text #28
ID : 30
Format : UTF-8
Codec ID : S_TEXT/UTF8
Codec ID/Info : UTF-8 Plain Text
Duration : 1 h 39 min
Bit rate : 37 b/s
Count of elements : 1158
Stream size : 26.9 KiB (0%)
Language : Turkish
Default : No
Forced : No

Text #29
ID : 31
Format : UTF-8
Codec ID : S_TEXT/UTF8
Codec ID/Info : UTF-8 Plain Text
Duration : 1 h 39 min
Bit rate : 50 b/s
Count of elements : 1157
Stream size : 36.6 KiB (0%)
Language : Vietnamese
Default : No
Forced : No

Text #30
ID : 32
Format : UTF-8
Codec ID : S_TEXT/UTF8
Codec ID/Info : UTF-8 Plain Text
Duration : 1 h 39 min
Bit rate : 40 b/s
Count of elements : 1161
Stream size : 29.2 KiB (0%)
Title : Simplified
Language : Chinese
Default : No
Forced : No

Text #31
ID : 33
Format : UTF-8
Codec ID : S_TEXT/UTF8
Codec ID/Info : UTF-8 Plain Text
Duration : 1 h 39 min
Bit rate : 37 b/s
Count of elements : 1172
Stream size : 27.3 KiB (0%)
Title : Traditional
Language : Chinese
Default : No
Forced : No

[collapse]
Download Link(s)

Download

Direct download files get automatically deleted after a month or so. Posted on : 10/05/2019

[collapse]
Magnet Link

Magnet

In.the.Tall.Grass.2019.1080p.NF.WEBRip.DDP5.1.Atmos.x264-NTG-5.85 GB

[collapse]

Media information

General
Format : Matroska
Format version : Version 4
File size : 889 MiB
Duration : 1 h 41 min
Overall bit rate : 1 220 kb/s
Movie name : In.the.Tall.Grass.2019.720p.WEB-DL.2CH.x264.AVC
Encoded date : UTC 2019-10-04 22:06:38
Writing application : mkvmerge v37.0.0 (‘Leave It’) 32-bit
Writing library : libebml v1.3.9 + libmatroska v1.5.2

Video
ID : 1
Format : AVC
Format/Info : Advanced Video Codec
Format profile : [email protected]
Format settings : CABAC / 4 Ref Frames
Format settings, CABAC : Yes
Format settings, Reference frames : 4 frames
Codec ID : V_MPEG4/ISO/AVC
Duration : 1 h 41 min
Bit rate : 1 100 kb/s
Width : 1 280 pixels
Height : 536 pixels
Display aspect ratio : 2.40:1
Frame rate mode : Constant
Frame rate : 23.976 (24000/1001) FPS
Color space : YUV
Chroma subsampling : 4:2:0
Bit depth : 8 bits
Scan type : Progressive
Bits/(Pixel*Frame) : 0.067
Stream size : 792 MiB (89%)
Default : Yes
Forced : No
Color range : Limited
Color primaries : BT.709
Transfer characteristics : BT.709
Matrix coefficients : BT.709

Audio
ID : 2
Format : AAC LC
Codec ID : A_AAC-2
Duration : 1 h 41 min
Bit rate : 127 kb/s
Channel(s) : 2 channels
Channel layout : L R
Sampling rate : 48.0 kHz
Frame rate : 46.875 FPS (1024 SPF)
Compression mode : Lossy
Delay relative to video : -21 ms
Stream size : 92.8 MiB (10%)
Language : English
Default : Yes
Forced : No

Text #1
ID : 3
Format : ASS
Codec ID : S_TEXT/ASS
Duration : 1 h 37 min
Bit rate : 81 b/s
Count of elements : 1258
Compression mode : Lossless
Stream size : 58.0 KiB (0%)
Language : English
Default : Yes
Forced : No

Text #2
ID : 4
Format : ASS
Codec ID : S_TEXT/ASS
Duration : 1 h 38 min
Bit rate : 95 b/s
Count of elements : 1501
Compression mode : Lossless
Stream size : 68.8 KiB (0%)
Language : English
Default : No
Forced : No

Text #3
ID : 5
Format : ASS
Codec ID : S_TEXT/ASS
Duration : 1 h 39 min
Bit rate : 97 b/s
Count of elements : 1177
Compression mode : Lossless
Stream size : 71.1 KiB (0%)
Language : Arabic
Default : No
Forced : No

Text #4
ID : 6
Format : ASS
Codec ID : S_TEXT/ASS
Duration : 1 h 39 min
Bit rate : 66 b/s
Count of elements : 1133
Compression mode : Lossless
Stream size : 48.4 KiB (0%)
Language : Czech
Default : No
Forced : No

Text #5
ID : 7
Format : ASS
Codec ID : S_TEXT/ASS
Duration : 1 h 39 min
Bit rate : 73 b/s
Count of elements : 1178
Compression mode : Lossless
Stream size : 53.3 KiB (0%)
Language : Danish
Default : No
Forced : No

Text #6
ID : 8
Format : ASS
Codec ID : S_TEXT/ASS
Duration : 1 h 39 min
Bit rate : 68 b/s
Count of elements : 1144
Compression mode : Lossless
Stream size : 49.8 KiB (0%)
Language : German
Default : No
Forced : No

Text #7
ID : 9
Format : ASS
Codec ID : S_TEXT/ASS
Duration : 1 h 39 min
Bit rate : 93 b/s
Count of elements : 1154
Compression mode : Lossless
Stream size : 67.6 KiB (0%)
Language : Greek
Default : No
Forced : No

Text #8
ID : 10
Format : ASS
Codec ID : S_TEXT/ASS
Duration : 1 h 33 min
Bit rate : 72 b/s
Count of elements : 1100
Compression mode : Lossless
Stream size : 49.9 KiB (0%)
Language : Spanish
Default : No
Forced : No

Text #9
ID : 11
Format : ASS
Codec ID : S_TEXT/ASS
Duration : 1 h 39 min
Bit rate : 67 b/s
Count of elements : 1142
Compression mode : Lossless
Stream size : 48.6 KiB (0%)
Language : Spanish
Default : No
Forced : No

Text #10
ID : 12
Format : ASS
Codec ID : S_TEXT/ASS
Duration : 1 h 39 min
Bit rate : 65 b/s
Count of elements : 1039
Compression mode : Lossless
Stream size : 47.5 KiB (0%)
Language : Finnish
Default : No
Forced : No

Text #11
ID : 13
Format : ASS
Codec ID : S_TEXT/ASS
Duration : 1 h 39 min
Bit rate : 66 b/s
Count of elements : 1094
Compression mode : Lossless
Stream size : 48.5 KiB (0%)
Language : French
Default : No
Forced : No

Text #12
ID : 14
Format : ASS
Codec ID : S_TEXT/ASS
Duration : 1 h 39 min
Bit rate : 91 b/s
Count of elements : 1178
Compression mode : Lossless
Stream size : 66.3 KiB (0%)
Language : Hebrew
Default : No
Forced : No

Text #13
ID : 15
Format : ASS
Codec ID : S_TEXT/ASS
Duration : 1 h 39 min
Bit rate : 135 b/s
Count of elements : 1178
Compression mode : Lossless
Stream size : 98.2 KiB (0%)
Language : Hindi
Default : No
Forced : No

Text #14
ID : 16
Format : ASS
Codec ID : S_TEXT/ASS
Duration : 1 h 39 min
Bit rate : 72 b/s
Count of elements : 1178
Compression mode : Lossless
Stream size : 52.7 KiB (0%)
Language : Hungarian
Default : No
Forced : No

Text #15
ID : 17
Format : ASS
Codec ID : S_TEXT/ASS
Duration : 1 h 39 min
Bit rate : 69 b/s
Count of elements : 1157
Compression mode : Lossless
Stream size : 50.2 KiB (0%)
Language : Indonesian
Default : No
Forced : No

Text #16
ID : 18
Format : ASS
Codec ID : S_TEXT/ASS
Duration : 1 h 38 min
Bit rate : 66 b/s
Count of elements : 1127
Compression mode : Lossless
Stream size : 48.5 KiB (0%)
Language : Italian
Default : No
Forced : No

Text #17
ID : 19
Format : ASS
Codec ID : S_TEXT/ASS
Duration : 1 h 39 min
Bit rate : 70 b/s
Count of elements : 1132
Compression mode : Lossless
Stream size : 50.8 KiB (0%)
Language : Japanese
Default : No
Forced : No

Text #18
ID : 20
Format : ASS
Codec ID : S_TEXT/ASS
Duration : 1 h 39 min
Bit rate : 81 b/s
Count of elements : 1164
Compression mode : Lossless
Stream size : 59.3 KiB (0%)
Language : Korean
Default : No
Forced : No

Text #19
ID : 21
Format : ASS
Codec ID : S_TEXT/ASS
Duration : 1 h 39 min
Bit rate : 70 b/s
Count of elements : 1165
Compression mode : Lossless
Stream size : 51.1 KiB (0%)
Language : Norwegian Bokmal
Default : No
Forced : No

Text #20
ID : 22
Format : ASS
Codec ID : S_TEXT/ASS
Duration : 1 h 39 min
Bit rate : 57 b/s
Count of elements : 886
Compression mode : Lossless
Stream size : 41.6 KiB (0%)
Language : Dutch
Default : No
Forced : No

Text #21
ID : 23
Format : ASS
Codec ID : S_TEXT/ASS
Duration : 1 h 39 min
Bit rate : 65 b/s
Count of elements : 1125
Compression mode : Lossless
Stream size : 47.8 KiB (0%)
Language : Polish
Default : No
Forced : No

Text #22
ID : 24
Format : ASS
Codec ID : S_TEXT/ASS
Duration : 1 h 39 min
Bit rate : 67 b/s
Count of elements : 1154
Compression mode : Lossless
Stream size : 48.9 KiB (0%)
Language : Portuguese
Default : No
Forced : No

Text #23
ID : 25
Format : ASS
Codec ID : S_TEXT/ASS
Duration : 1 h 32 min
Bit rate : 70 b/s
Count of elements : 1137
Compression mode : Lossless
Stream size : 47.6 KiB (0%)
Language : Portuguese
Default : No
Forced : No

Text #24
ID : 26
Format : ASS
Codec ID : S_TEXT/ASS
Duration : 1 h 39 min
Bit rate : 71 b/s
Count of elements : 1140
Compression mode : Lossless
Stream size : 52.2 KiB (0%)
Language : Romanian
Default : No
Forced : No

Text #25
ID : 27
Format : ASS
Codec ID : S_TEXT/ASS
Duration : 1 h 39 min
Bit rate : 82 b/s
Count of elements : 929
Compression mode : Lossless
Stream size : 60.2 KiB (0%)
Language : Russian
Default : No
Forced : No

Text #26
ID : 28
Format : ASS
Codec ID : S_TEXT/ASS
Duration : 1 h 39 min
Bit rate : 64 b/s
Count of elements : 1048
Compression mode : Lossless
Stream size : 46.9 KiB (0%)
Language : Swedish
Default : No
Forced : No

Text #27
ID : 29
Format : ASS
Codec ID : S_TEXT/ASS
Duration : 1 h 39 min
Bit rate : 133 b/s
Count of elements : 1161
Compression mode : Lossless
Stream size : 96.7 KiB (0%)
Language : Thai
Default : No
Forced : No

Text #28
ID : 30
Format : ASS
Codec ID : S_TEXT/ASS
Duration : 1 h 39 min
Bit rate : 71 b/s
Count of elements : 1158
Compression mode : Lossless
Stream size : 51.9 KiB (0%)
Language : Turkish
Default : No
Forced : No

Text #29
ID : 31
Format : ASS
Codec ID : S_TEXT/ASS
Duration : 1 h 39 min
Bit rate : 84 b/s
Count of elements : 1157
Compression mode : Lossless
Stream size : 61.6 KiB (0%)
Language : Vietnamese
Default : No
Forced : No

Text #30
ID : 32
Format : ASS
Codec ID : S_TEXT/ASS
Duration : 1 h 39 min
Bit rate : 74 b/s
Count of elements : 1161
Compression mode : Lossless
Stream size : 54.2 KiB (0%)
Language : Chinese
Default : No
Forced : No

Text #31
ID : 33
Format : ASS
Codec ID : S_TEXT/ASS
Duration : 1 h 39 min
Bit rate : 72 b/s
Count of elements : 1172
Compression mode : Lossless
Stream size : 52.6 KiB (0%)
Language : Chinese
Default : No
Forced : No

[collapse]
Download Link(s)

Download

Direct download files get automatically deleted after a month or so. Posted on : 10/05/2019

[collapse]
Magnet Link

Magnet

In.the.Tall.Grass.2019.1080p.NF.WEBRip.DDP5.1.Atmos.x264-NTG-5.85 GB

[collapse]

You may also like...

error: nah :p~