Instant Family (2018)

PG-13 | 1h 58min | Comedy, Drama | 16 November 2018 (USA)

A couple find themselves in over their heads when they foster three children.

Watch trailer

Media information

General
Format : Matroska
Format version : Version 4
File size : 947 MiB
Duration : 1 h 58 min
Overall bit rate : 1 121 kb/s
Movie name : Instant.Family.2018.720p.10bit.BluRay.6CH.x265.HEVC
Encoded date : UTC 2019-03-01 09:18:06
Writing application : mkvmerge v31.0.0 (‘Dolores In A Shoestand’) 32-bit
Writing library : libebml v1.3.6 + libmatroska v1.4.9

Video
ID : 1
Format : HEVC
Format/Info : High Efficiency Video Coding
Format profile : Main [email protected]@Main
Codec ID : V_MPEGH/ISO/HEVC
Duration : 1 h 58 min
Bit rate : 927 kb/s
Width : 1 280 pixels
Height : 536 pixels
Display aspect ratio : 2.40:1
Frame rate mode : Constant
Frame rate : 23.976 (24000/1001) FPS
Color space : YUV
Chroma subsampling : 4:2:0
Bit depth : 10 bits
Bits/(Pixel*Frame) : 0.056
Stream size : 783 MiB (83%)
Default : Yes
Forced : No

Audio
ID : 2
Format : AAC LC SBR
Commercial name : HE-AAC
Format settings : Explicit
Codec ID : A_AAC-2
Duration : 1 h 58 min
Bit rate : 192 kb/s
Channel(s) : 6 channels
Channel layout : C L R Ls Rs LFE
Sampling rate : 48.0 kHz
Frame rate : 23.438 FPS (2048 SPF)
Compression mode : Lossy
Delay relative to video : 31 ms
Stream size : 163 MiB (17%)
Language : English
Default : Yes
Forced : No

Text
ID : 3
Format : UTF-8
Codec ID : S_TEXT/UTF8
Codec ID/Info : UTF-8 Plain Text
Duration : 1 h 52 min
Bit rate : 97 b/s
Count of elements : 2137
Stream size : 80.0 KiB (0%)
Language : English
Default : Yes
Forced : No

[collapse]
Download Link(s)

Download

[RE-UP]-Direct download files get automatically deleted after a month or so. Posted on : 06/28/2019

[collapse]
Magnet Link

Magnet

Instant.Family.2018.1080p.BluRay.REMUX.AVC.DTS-HD.MA.7.1-FGT-29.69 GB

[collapse]

You may also like...

error: nah :p~