Invisible Life (2019)

A Vida Invisível (original title)|R | 2h 19min | Drama | 3 April 2020 (USA)

Kept apart by a terrible lie and a conservative society, two sisters born in Rio de Janeiro make their way through life each believing the other is living out her dreams half a world away.

Watch trailer

Media information

General
Format : Matroska
Format version : Version 4
File size : 1.54 GiB
Duration : 2 h 19 min
Overall bit rate : 1 582 kb/s
Movie name : Invisible.Life.2019.1080p.WEB-DL.2CH.x265.HEVC

Video
ID : 1
Format : HEVC
Format/Info : High Efficiency Video Coding
Format profile : [email protected]@Main
Codec ID : V_MPEGH/ISO/HEVC
Duration : 2 h 19 min
Bit rate : 1 500 kb/s
Width : 1 920 pixels
Height : 800 pixels
Display aspect ratio : 2.40:1
Frame rate mode : Constant
Frame rate : 23.976 (24000/1001) FPS
Color space : YUV
Chroma subsampling : 4:2:0
Bit depth : 8 bits
Bits/(Pixel*Frame) : 0.041
Stream size : 1.46 GiB (95%)
Default : Yes
Forced : No
Color range : Limited
Color primaries : BT.709
Transfer characteristics : BT.709
Matrix coefficients : BT.709

Audio
ID : 2
Format : AAC LC
Codec ID : A_AAC-2
Duration : 2 h 19 min
Bit rate : 79.7 kb/s
Channel(s) : 2 channels
Channel layout : L R
Sampling rate : 48.0 kHz
Frame rate : 46.875 FPS (1024 SPF)
Compression mode : Lossy
Delay relative to video : -21 ms
Stream size : 79.6 MiB (5%)
Title : Stereo
Language : Portuguese
Default : Yes
Forced : No

Text #1
ID : 3
Format : ASS
Codec ID : S_TEXT/ASS
Duration : 2 h 3 min
Bit rate : 0 b/s
Count of elements : 19
Compression mode : Lossless
Stream size : 467 Bytes (0%)
Language : English
Default : No
Forced : Yes

Text #2
ID : 4
Format : ASS
Codec ID : S_TEXT/ASS
Duration : 2 h 18 min
Bit rate : 13 b/s
Count of elements : 388
Compression mode : Lossless
Stream size : 13.4 KiB (0%)
Title : SDH
Language : English
Default : Yes
Forced : No

[collapse]
Download Link(s)

Download

Direct download files get automatically deleted after a month or so. Posted on : 04/06/2020

[collapse]
Magnet Link

Magnet

Invisible.Life.2019.PORTUGUESE.ENSUBBED.1080p.AMZN.WEBRip.DDP5.1.x264-TEPES-10.04 GB

[collapse]

Media information

General
Format : Matroska
Format version : Version 4
File size : 1.01 GiB
Duration : 2 h 19 min
Overall bit rate : 1 032 kb/s
Movie name : Invisible.Life.2019.720p.WEB-DL.2CH.x265.HEVC

Video
ID : 1
Format : HEVC
Format/Info : High Efficiency Video Coding
Format profile : [email protected]@Main
Codec ID : V_MPEGH/ISO/HEVC
Duration : 2 h 19 min
Bit rate : 951 kb/s
Width : 1 280 pixels
Height : 534 pixels
Display aspect ratio : 2.40:1
Frame rate mode : Constant
Frame rate : 23.976 (24000/1001) FPS
Color space : YUV
Chroma subsampling : 4:2:0
Bit depth : 8 bits
Bits/(Pixel*Frame) : 0.058
Stream size : 950 MiB (92%)
Default : Yes
Forced : No
Color range : Limited
Color primaries : BT.709
Transfer characteristics : BT.709
Matrix coefficients : BT.709

Audio
ID : 2
Format : AAC LC
Codec ID : A_AAC-2
Duration : 2 h 19 min
Bit rate : 79.7 kb/s
Channel(s) : 2 channels
Channel layout : L R
Sampling rate : 48.0 kHz
Frame rate : 46.875 FPS (1024 SPF)
Compression mode : Lossy
Delay relative to video : -21 ms
Stream size : 79.6 MiB (8%)
Title : Stereo
Language : Portuguese
Default : Yes
Forced : No

Text #1
ID : 3
Format : ASS
Codec ID : S_TEXT/ASS
Duration : 2 h 3 min
Bit rate : 0 b/s
Count of elements : 19
Compression mode : Lossless
Stream size : 467 Bytes (0%)
Language : English
Default : No
Forced : Yes

Text #2
ID : 4
Format : ASS
Codec ID : S_TEXT/ASS
Duration : 2 h 18 min
Bit rate : 13 b/s
Count of elements : 388
Compression mode : Lossless
Stream size : 13.4 KiB (0%)
Title : SDH
Language : English
Default : Yes
Forced : No

[collapse]
Download Link(s)

Download

Direct download files get automatically deleted after a month or so. Posted on : 04/06/2020

[collapse]
Magnet Link

Magnet

Invisible.Life.2019.PORTUGUESE.ENSUBBED.1080p.AMZN.WEBRip.DDP5.1.x264-TEPES-10.04 GB

[collapse]

You may also like...

error: nah :p~