Invisible Sue (2018)

1h 30min | Adventure, Fantasy | 31 October 2019 (Germany)

Following an accident in her scientist mother’s laboratory with the new wonder fluid NT26D, which is designed to fight illnesses genetically, 12-year-old Sue – Ruby M. Lichtenberg, now has the unique ability to make herself invisible. So when Sue’s mother is kidnapped right before her very eyes, she is just the girl for the job. Together with Kaya (Anna Shirin Habedank), a rather nerdy girl of the same age who could teach James Bond’s Q a few things, and Tobi, who not only looks good and has the hots for her but can also do amazing things on his bicycle, Sue and her friends combine their strengths and talents to free her mother, unmask the conspiracy behind her disappearance and bring the truth to light.

Watch trailer

Media information

General
Format : Matroska
Format version : Version 4
File size : 832 MiB
Duration : 1 h 35 min
Overall bit rate : 1 218 kb/s
Movie name : Invisible.Sue.2018.720p.WEB-DL.2CH.x264.AVC
Encoded date : UTC 2019-10-09 08:27:25
Writing application : mkvmerge v38.0.0 (‘The Silent Type’) 32-bit
Writing library : libebml v1.3.9 + libmatroska v1.5.2

Video
ID : 1
Format : AVC
Format/Info : Advanced Video Codec
Format profile : [email protected]
Format settings : CABAC / 4 Ref Frames
Format settings, CABAC : Yes
Format settings, Reference frames : 4 frames
Codec ID : V_MPEG4/ISO/AVC
Duration : 1 h 35 min
Bit rate : 1 100 kb/s
Width : 1 280 pixels
Height : 530 pixels
Display aspect ratio : 2.40:1
Frame rate mode : Constant
Frame rate : 23.976 (24000/1001) FPS
Color space : YUV
Chroma subsampling : 4:2:0
Bit depth : 8 bits
Scan type : Progressive
Bits/(Pixel*Frame) : 0.068
Stream size : 743 MiB (89%)
Default : Yes
Forced : No
Color range : Limited
Color primaries : BT.709
Transfer characteristics : BT.709
Matrix coefficients : BT.709

Audio
ID : 2
Format : AAC LC
Codec ID : A_AAC-2
Duration : 1 h 35 min
Bit rate : 128 kb/s
Channel(s) : 2 channels
Channel layout : L R
Sampling rate : 48.0 kHz
Frame rate : 46.875 FPS (1024 SPF)
Compression mode : Lossy
Delay relative to video : -21 ms
Stream size : 87.4 MiB (11%)
Language : English
Default : Yes
Forced : No

Text
ID : 3
Format : ASS
Codec ID : S_TEXT/ASS
Duration : 1 h 34 min
Bit rate : 169 b/s
Count of elements : 2181
Compression mode : Lossless
Stream size : 117 KiB (0%)
Language : English
Default : Yes
Forced : No

[collapse]
Download Link(s)

Download

Direct download files get automatically deleted after a month or so. Posted on : 10/09/2019

[collapse]
Magnet Link

Magnet

Invisible.Sue.2018.1080p.WEB-DL.DD5.1.H264-FGT-3.32 GB

[collapse]

You may also like...

error: nah :p~