Itsy Bitsy (2019)

1h 34min | Fantasy, Horror, Mystery | 2020 (USA)

Based on the centuries old poem, a family moves into a secluded mansion where they soon find themselves being targeted by an entity taking the form of a giant spider.

Watch trailer

Media information

General
Format : Matroska
Format version : Version 4
File size : 801 MiB
Duration : 1 h 34 min
Overall bit rate : 1 180 kb/s
Movie name : Itsy.Bitsy.2019.720p.WEB-DL.2CH.x264.AVC
Encoded date : UTC 2019-09-02 15:38:20
Writing application : mkvmerge v37.0.0 (‘Leave It’) 32-bit
Writing library : libebml v1.3.9 + libmatroska v1.5.2

Video
ID : 1
Format : AVC
Format/Info : Advanced Video Codec
Format profile : [email protected]
Format settings : CABAC / 5 Ref Frames
Format settings, CABAC : Yes
Format settings, Reference frames : 5 frames
Codec ID : V_MPEG4/ISO/AVC
Duration : 1 h 34 min
Bit rate : 1 114 kb/s
Width : 1 280 pixels
Height : 530 pixels
Display aspect ratio : 2.40:1
Frame rate mode : Constant
Frame rate : 23.976 (24000/1001) FPS
Color space : YUV
Chroma subsampling : 4:2:0
Bit depth : 8 bits
Scan type : Progressive
Bits/(Pixel*Frame) : 0.068
Stream size : 756 MiB (94%)
Default : Yes
Forced : No

Audio
ID : 2
Format : AAC LC SBR
Commercial name : HE-AAC
Format settings : Explicit
Codec ID : A_AAC-2
Duration : 1 h 34 min
Bit rate : 64.0 kb/s
Channel(s) : 2 channels
Channel layout : L R
Sampling rate : 48.0 kHz
Frame rate : 23.438 FPS (2048 SPF)
Compression mode : Lossy
Delay relative to video : 1 ms
Stream size : 43.4 MiB (5%)
Language : English
Default : Yes
Forced : No

Text
ID : 3
Format : UTF-8
Codec ID : S_TEXT/UTF8
Codec ID/Info : UTF-8 Plain Text
Duration : 1 h 34 min
Bit rate : 44 b/s
Count of elements : 913
Stream size : 30.8 KiB (0%)
Language : English
Default : Yes
Forced : No

[collapse]
Download Link(s)

Download

Direct download files get automatically deleted after a month or so. Posted on : 09/02/2019

[collapse]
Magnet Link

Magnet

Itsy.Bitsy.2019.1080p.AMZN.WEBRip.DDP5.1.x264-NTG-6.04 GB

[collapse]

Watch now

[collapse]

You may also like...

error: nah :p~