Jeff Dunham: Relative Disaster (2017)

TV-MA | Comedy | TV Special 12 September 2017

Welcome to Ireland, where Ventriloquist Jeff Dunham is back with his gang of dolls, revealing some relative secrets. The Netflix special stars Walter (Jeff Dunham), Bubba J (Jeff Dunham), Achmed (Jeff Dunham), Peanut (Je-f-f Dun-ham.com), and the new Irish baby, Shamus, voiced by special Guest-star, Jeff Dunham.

Watch trailer

Media information

General
Format : Matroska
Format version : Version 4 / Version 2
File size : 491 MiB
Duration : 1 h 10 min
Overall bit rate : 974 kb/s
Movie name : Jeff.Dunham.Relative.Disaster.2017.720p.WEBRip.2CH.x265.HEVC
Encoded date : UTC 2018-05-27 18:46:58
Writing application : mkvmerge v23.0.0 (‘The Bride Said No’) 32-bit
Writing library : libebml v1.3.6 + libmatroska v1.4.9

Video
ID : 1
Format : HEVC
Format/Info : High Efficiency Video Coding
Format profile : [email protected]@Main
Codec ID : V_MPEGH/ISO/HEVC
Duration : 1 h 10 min
Bit rate : 901 kb/s
Width : 1 280 pixels
Height : 720 pixels
Display aspect ratio : 16:9
Frame rate mode : Constant
Frame rate : 23.976 (24000/1001) FPS
Color space : YUV
Chroma subsampling : 4:2:0
Bit depth : 8 bits
Bits/(Pixel*Frame) : 0.041
Stream size : 455 MiB (93%)
Default : Yes
Forced : No

Audio
ID : 2
Format : AAC
Format/Info : Advanced Audio Codec
Format profile : HE-AAC / LC
Format settings : Explicit
Codec ID : A_AAC-2
Duration : 1 h 10 min
Bit rate : 72.0 kb/s
Channel(s) : 2 channels
Channel positions : Front: L R
Sampling rate : 48.0 kHz / 24.0 kHz
Frame rate : 23.438 FPS (1024 SPF)
Compression mode : Lossy
Delay relative to video : 23 ms
Stream size : 35.7 MiB (7%)
Default : Yes
Forced : No

Text
ID : 3
Format : UTF-8
Codec ID : S_TEXT/UTF8
Codec ID/Info : UTF-8 Plain Text
Duration : 1 h 10 min
Bit rate : 92 b/s
Count of elements : 1366
Stream size : 47.7 KiB (0%)
Default : Yes
Forced : No

[collapse]
Download Link(s)

Download

[RE-UP] – Direct download files get automatically deleted after a month or so. Posted on : 05/27/2018

[collapse]
Magnet Link

Magnet

Source : Jeff.Dunham.Relative.Disaster.2017.1080p.WEB.x264-STRiFE-1.90 GB

[collapse]

You may also like...

error: nah :p~