JFK (1991)

R | 3h 9min | Drama, History, Thriller | 20 December 1991 (USA)

New Orleans District Attorney Jim Garrison discovers there’s more to the Kennedy assassination than the official story.

Watch trailer

Media information

General
Format : Matroska
Format version : Version 4
File size : 2.26 GiB
Duration : 3 h 25 min
Overall bit rate : 1 573 kb/s
Movie name : JFK.1991.1080p.BluRay.2CH.x265.HEVC
Encoded date : UTC 2019-12-12 12:17:16
Writing application : mkvmerge v41.0.0 (‘Smarra’) 32-bit
Writing library : libebml v1.3.9 + libmatroska v1.5.2

Video
ID : 1
Format : HEVC
Format/Info : High Efficiency Video Coding
Format profile : [email protected]@Main
Codec ID : V_MPEGH/ISO/HEVC
Duration : 3 h 25 min
Bit rate : 1 490 kb/s
Width : 1 920 pixels
Height : 800 pixels
Display aspect ratio : 2.40:1
Frame rate mode : Constant
Frame rate : 23.976 (24000/1001) FPS
Color space : YUV
Chroma subsampling : 4:2:0
Bit depth : 8 bits
Bits/(Pixel*Frame) : 0.040
Stream size : 2.14 GiB (95%)
Default : Yes
Forced : No
Color range : Limited
Color primaries : BT.709
Transfer characteristics : BT.709
Matrix coefficients : BT.709

Audio
ID : 2
Format : AAC LC
Codec ID : A_AAC-2
Duration : 3 h 25 min
Bit rate : 80.5 kb/s
Channel(s) : 2 channels
Channel layout : L R
Sampling rate : 48.0 kHz
Frame rate : 46.875 FPS (1024 SPF)
Compression mode : Lossy
Delay relative to video : -64 ms
Stream size : 118 MiB (5%)
Title : Stereo
Language : English
Default : Yes
Forced : No

Text
ID : 3
Format : UTF-8
Codec ID : S_TEXT/UTF8
Codec ID/Info : UTF-8 Plain Text
Duration : 3 h 17 min
Bit rate : 90 b/s
Count of elements : 3127
Stream size : 131 KiB (0%)
Language : English
Default : Yes
Forced : No

[collapse]
Download Link(s)

Download

Direct download files get automatically deleted after a month or so. Posted on : 12/12/2019

[collapse]
Magnet Link

Magnet

JFK.1991.1080p.BluRay.x264-CiNEFiLE-13.19 GB

[collapse]

You may also like...

error: nah :p~