John Wick: Chapter 3 – Parabellum (2019)

R | 2h 11min | Action, Crime, Thriller | 17 May 2019 (USA)

Super-assassin John Wick is on the run after killing a member of the international assassin’s guild, and with a $14 million price tag on his head – he is the target of hit men and women everywhere.

Watch trailer

Media information

General
Format : Matroska
Format version : Version 4
File size : 2.11 GiB
Duration : 2 h 11 min
Overall bit rate : 2 301 kb/s
Movie name : John.Wick.Chapter.3.Parabellum.2019.1080p.BrRip.6CH.x265.HEVC
Encoded date : UTC 2019-08-14 15:15:17
Writing application : mkvmerge v36.0.0 (‘Is That Jazz?’) 32-bit
Writing library : libebml v1.3.9 + libmatroska v1.5.2

Video
ID : 1
Format : HEVC
Format/Info : High Efficiency Video Coding
Format profile : [email protected]@Main
Codec ID : V_MPEGH/ISO/HEVC
Duration : 2 h 11 min
Bit rate : 2 092 kb/s
Width : 1 920 pixels
Height : 800 pixels
Display aspect ratio : 2.40:1
Frame rate mode : Constant
Frame rate : 23.976 (24000/1001) FPS
Color space : YUV
Chroma subsampling : 4:2:0
Bit depth : 8 bits
Bits/(Pixel*Frame) : 0.057
Stream size : 1.92 GiB (91%)
Default : Yes
Forced : No

Audio
ID : 2
Format : AAC LC SBR
Commercial name : HE-AAC
Format settings : Explicit
Codec ID : A_AAC-2
Duration : 2 h 11 min
Bit rate : 207 kb/s
Channel(s) : 6 channels
Channel layout : C L R Ls Rs LFE
Sampling rate : 48.0 kHz
Frame rate : 23.438 FPS (2048 SPF)
Compression mode : Lossy
Delay relative to video : 23 ms
Stream size : 194 MiB (9%)
Language : English
Default : Yes
Forced : No

Text
ID : 3
Format : UTF-8
Codec ID : S_TEXT/UTF8
Codec ID/Info : UTF-8 Plain Text
Duration : 1 h 59 min
Bit rate : 24 b/s
Count of elements : 797
Stream size : 21.9 KiB (0%)
Language : English
Default : Yes
Forced : No

[collapse]
Download Link(s)

Part01 Part02 Part03

Direct download files get automatically deleted after a month or so. Posted on : 08/15/2019

[collapse]
Magnet Link

Magnet

John.Wick.3.2019.1080p.Bluray.X264-EVO-13.2 GB

[collapse]

Media information

General
Format : Matroska
Format version : Version 4
File size : 886 MiB
Duration : 2 h 11 min
Overall bit rate : 945 kb/s
Movie name : John.Wick.Chapter.3.Parabellum.2019.720p.BrRip.2CH.x265.HEVC
Encoded date : UTC 2019-08-14 08:02:22
Writing application : mkvmerge v36.0.0 (‘Is That Jazz?’) 32-bit
Writing library : libebml v1.3.9 + libmatroska v1.5.2

Video
ID : 1
Format : HEVC
Format/Info : High Efficiency Video Coding
Format profile : [email protected]@Main
Codec ID : V_MPEGH/ISO/HEVC
Duration : 2 h 11 min
Bit rate : 873 kb/s
Width : 1 280 pixels
Height : 536 pixels
Display aspect ratio : 2.40:1
Frame rate mode : Constant
Frame rate : 23.976 (24000/1001) FPS
Color space : YUV
Chroma subsampling : 4:2:0
Bit depth : 8 bits
Bits/(Pixel*Frame) : 0.053
Stream size : 819 MiB (92%)
Default : Yes
Forced : No

Audio
ID : 2
Format : AAC LC SBR
Commercial name : HE-AAC
Format settings : Explicit
Codec ID : A_AAC-2
Duration : 2 h 11 min
Bit rate : 69.7 kb/s
Channel(s) : 2 channels
Channel layout : L R
Sampling rate : 48.0 kHz
Frame rate : 23.438 FPS (2048 SPF)
Compression mode : Lossy
Delay relative to video : 23 ms
Stream size : 65.3 MiB (7%)
Language : English
Default : Yes
Forced : No

Text
ID : 3
Format : UTF-8
Codec ID : S_TEXT/UTF8
Codec ID/Info : UTF-8 Plain Text
Duration : 1 h 59 min
Bit rate : 24 b/s
Count of elements : 797
Stream size : 21.9 KiB (0%)
Language : English
Default : Yes
Forced : No

[collapse]
Download Link(s)

Download

Direct download files get automatically deleted after a month or so. Posted on : 08/14/2019

[collapse]
Magnet Link

Magnet

John.Wick.3.2019.1080p.Bluray.X264-EVO-13.2 GB

[collapse]

You may also like...

error: nah :p~