Judgementall Hai Kya (2019)

2h 1min | Comedy, Drama, Thriller | 26 July 2019 (USA)

Following the story of two quirky individuals whose lives pivot between reality and illusions.

Watch trailer

Media information

General
Format : Matroska
Format version : Version 4
File size : 1 008 MiB
Duration : 1 h 54 min
Overall bit rate : 1 235 kb/s
Movie name : Judgementall.Hai.Kya.2019.Hindi.720p.WEB-DL.2CH.x264.AVC
Encoded date : UTC 2019-10-16 15:18:35
Writing application : mkvmerge v38.0.0 (‘The Silent Type’) 32-bit
Writing library : libebml v1.3.9 + libmatroska v1.5.2

Video
ID : 1
Format : AVC
Format/Info : Advanced Video Codec
Format profile : [email protected]
Format settings : CABAC / 4 Ref Frames
Format settings, CABAC : Yes
Format settings, Reference frames : 4 frames
Codec ID : V_MPEG4/ISO/AVC
Duration : 1 h 54 min
Bit rate : 1 100 kb/s
Width : 1 280 pixels
Height : 544 pixels
Display aspect ratio : 2.35:1
Frame rate mode : Constant
Frame rate : 23.976 (24000/1001) FPS
Color space : YUV
Chroma subsampling : 4:2:0
Bit depth : 8 bits
Scan type : Progressive
Bits/(Pixel*Frame) : 0.066
Stream size : 902 MiB (89%)
Default : Yes
Forced : No
Color range : Limited
Color primaries : BT.709
Transfer characteristics : BT.709
Matrix coefficients : BT.709

Audio
ID : 2
Format : AAC LC
Codec ID : A_AAC-2
Duration : 1 h 54 min
Bit rate : 128 kb/s
Channel(s) : 2 channels
Channel layout : L R
Sampling rate : 48.0 kHz
Frame rate : 46.875 FPS (1024 SPF)
Compression mode : Lossy
Delay relative to video : -21 ms
Stream size : 104 MiB (10%)
Language : Hindi
Default : Yes
Forced : No

Text
ID : 3
Format : ASS
Codec ID : S_TEXT/ASS
Duration : 1 h 51 min
Bit rate : 94 b/s
Count of elements : 1486
Compression mode : Lossless
Stream size : 76.8 KiB (0%)
Language : English
Default : No
Forced : No

[collapse]
Download Link(s)

Download

Direct download files get automatically deleted after a month or so. Posted on : 10/16/2019

[collapse]
Magnet Link

Magnet

Judgementall Hai Kya (2019) 1080p WEB-Rip x264 Hindi-3.0 GB

[collapse]

You may also like...

error: nah :p~