K.G.F: Chapter 1 (2018)

2h 36min | Action, Drama | 20 December 2018 (USA)

Set in the early 80s, K. G. F. – the first chapter centers the protagonist who leads a battle against oppressors in Kolar Gold Fields.

Watch trailer

Media information

General
Format : Matroska
Format version : Version 4
File size : 926 MiB
Duration : 2 h 34 min
Overall bit rate : 837 kb/s
Movie name : K.G.F.Chapter.1.2018.720p.HDRip.6CH.x265.HEVC
Encoded date : UTC 2019-02-09 12:18:41
Writing application : mkvmerge v31.0.0 (‘Dolores In A Shoestand’) 32-bit
Writing library : libebml v1.3.6 + libmatroska v1.4.9

Video
ID : 1
Format : HEVC
Format/Info : High Efficiency Video Coding
Format profile : [email protected]@Main
Codec ID : V_MPEGH/ISO/HEVC
Duration : 2 h 34 min
Bit rate : 707 kb/s
Width : 1 280 pixels
Height : 544 pixels
Display aspect ratio : 2.35:1
Frame rate mode : Constant
Frame rate : 25.000 FPS
Color space : YUV
Chroma subsampling : 4:2:0
Bit depth : 8 bits
Bits/(Pixel*Frame) : 0.041
Stream size : 782 MiB (84%)
Language : Tamil
Default : Yes
Forced : No
Color range : Limited
Matrix coefficients : BT.709

Audio
ID : 2
Format : AAC LC SBR
Commercial name : HE-AAC
Format settings : Explicit
Codec ID : A_AAC-2
Duration : 2 h 34 min
Bit rate : 128 kb/s
Channel(s) : 6 channels
Channel layout : C L R Ls Rs LFE
Sampling rate : 48.0 kHz
Frame rate : 23.438 FPS (2048 SPF)
Compression mode : Lossy
Delay relative to video : 43 ms
Stream size : 142 MiB (15%)
Language : Tamil
Default : No
Forced : No

Text
ID : 3
Format : UTF-8
Codec ID : S_TEXT/UTF8
Codec ID/Info : UTF-8 Plain Text
Duration : 2 h 29 min
Bit rate : 57 b/s
Count of elements : 2245
Stream size : 62.5 KiB (0%)
Language : English
Default : Yes
Forced : No

[collapse]
Download Link(s)

Download

[RE-UP]-Direct download files get automatically deleted after a month or so. Posted on : 07/18/2019

[collapse]
Magnet Link

Magnet

KGF.Chapter.1.2018.Tamil.1080p.HD.AVC.DDP.5.1-4.1 GB

[collapse]

You may also like...

error: nah :p~