Kabir Singh (2019)

2h 53min | Drama, Romance | 20 June 2019 (USA)

Kabir Singh is a remake of a Telugu movie Arjun Reddy (2017), where a short-tempered house surgeon gets used to drugs and drinks when his girlfriend is forced to marry another person.

Watch trailer

Media information

General
Format : Matroska
Format version : Version 4
File size : 1.13 GiB
Duration : 2 h 51 min
Overall bit rate : 940 kb/s
Movie name : Kabir.Singh.2019.Hindi.720p.WEB-DL.2CH.x265.HEVC
Encoded date : UTC 2019-09-20 16:12:39
Writing application : mkvmerge v37.0.0 (‘Leave It’) 32-bit
Writing library : libebml v1.3.9 + libmatroska v1.5.2

Video
ID : 1
Format : HEVC
Format/Info : High Efficiency Video Coding
Format profile : [email protected]@Main
Codec ID : V_MPEGH/ISO/HEVC
Duration : 2 h 51 min
Bit rate : 873 kb/s
Width : 1 280 pixels
Height : 544 pixels
Display aspect ratio : 2.35:1
Frame rate mode : Constant
Frame rate : 23.976 (24000/1001) FPS
Color space : YUV
Chroma subsampling : 4:2:0
Bit depth : 8 bits
Bits/(Pixel*Frame) : 0.052
Stream size : 1.05 GiB (93%)
Default : Yes
Forced : No
Color range : Limited
Color primaries : BT.709
Transfer characteristics : BT.709
Matrix coefficients : BT.709

Audio
ID : 2
Format : AAC LC
Codec ID : A_AAC-2
Duration : 2 h 51 min
Bit rate : 64.6 kb/s
Channel(s) : 2 channels
Channel layout : L R
Sampling rate : 48.0 kHz
Frame rate : 46.875 FPS (1024 SPF)
Compression mode : Lossy
Delay relative to video : -42 ms
Stream size : 79.2 MiB (7%)
Title : Stereo
Language : Hindi
Default : Yes
Forced : No

Text
ID : 3
Format : ASS
Codec ID : S_TEXT/ASS
Duration : 2 h 48 min
Bit rate : 79 b/s
Count of elements : 1926
Compression mode : Lossless
Stream size : 98.5 KiB (0%)
Language : English
Default : Yes
Forced : Yes

[collapse]
Download Link(s)

Download

Direct download files get automatically deleted after a month or so. Posted on : 09/20/2019

[collapse]
Magnet Link

Magnet

Kabir.Singh.2019.1080p.NF.WEB-DL.DD+5.1.x264-Telly-6.1 GB

[collapse]

You may also like...

error: nah :p~