Kickboxer: Vengeance (2016)

Not Rated | 1h 30min | Action, Crime, Drama | 1 September 2016 (Cambodia)

A kick boxer is out to avenge his brother.

Watch trailer

Media information

General
Format : Matroska
Format version : Version 4 / Version 2
File size : 784 MiB
Duration : 1 h 30 min
Overall bit rate : 1 213 kb/s
Movie name : Kickboxer.Vengeance.2016.720p.10bit.BluRay.6CH.x265.HEVC
Encoded date : UTC 2018-03-25 15:27:36
Writing application : mkvmerge v21.0.0 (‘Tardigrades Will Inherit The Earth’) 32-bit
Writing library : libebml v1.3.5 + libmatroska v1.4.8

Video
ID : 1
Format : HEVC
Format/Info : High Efficiency Video Coding
Format profile : Main [email protected]@Main
Codec ID : V_MPEGH/ISO/HEVC
Duration : 1 h 30 min
Bit rate : 1 004 kb/s
Width : 1 280 pixels
Height : 536 pixels
Display aspect ratio : 2.40:1
Frame rate mode : Constant
Frame rate : 23.976 (24000/1001) FPS
Color space : YUV
Chroma subsampling : 4:2:0
Bit depth : 10 bits
Bits/(Pixel*Frame) : 0.061
Stream size : 649 MiB (83%)
Default : Yes
Forced : No

Audio
ID : 2
Format : AAC
Format/Info : Advanced Audio Codec
Format profile : HE-AAC / LC
Format settings : Explicit
Codec ID : A_AAC-2
Duration : 1 h 30 min
Bit rate : 207 kb/s
Channel(s) : 6 channels
Channel positions : Front: L C R, Side: L R, LFE
Sampling rate : 48.0 kHz / 24.0 kHz
Frame rate : 23.438 FPS (1024 SPF)
Compression mode : Lossy
Delay relative to video : 23 ms
Stream size : 134 MiB (17%)
Title : ENG
Language : English
Default : Yes
Forced : No

Text
ID : 3
Format : UTF-8
Codec ID : S_TEXT/UTF8
Codec ID/Info : UTF-8 Plain Text
Duration : 1 h 20 min
Bit rate : 21 b/s
Count of elements : 384
Stream size : 12.6 KiB (0%)
Title : ENG
Language : English
Default : Yes
Forced : No

[collapse]
Download Link(s)

Download

Direct download files get automatically deleted after a month or so. Posted on : 03/25/2018

[collapse]
Magnet Link

Magnet

Source : Kickboxer.Vengeance.2016.1080p.BluRay.x264-ROVERS-6.56 GB

[collapse]

You may also like...

error: nah :p~