Kill Bill: Vol. 1 (2003)

R | 1h 51min | Action, Crime, Thriller | 10 October 2003 (USA)

After awakening from a four-year coma, a former assassin wreaks vengeance on the team of assassins who betrayed her.

Watch trailer

Media information

General
Format : Matroska
Format version : Version 4
File size : 700 MiB
Duration : 1 h 50 min
Overall bit rate : 884 kb/s
Movie name : Kill.Bill.Vol.1.2003.720p.BluRay.2CH.x265.HEVC
Encoded date : UTC 2019-04-10 18:32:36
Writing application : mkvmerge v32.0.0 (‘Astral Progressions’) 32-bit
Writing library : libebml v1.3.7 + libmatroska v1.5.0

Video
ID : 3
Format : HEVC
Format/Info : High Efficiency Video Coding
Format profile : [email protected]@Main
Codec ID : V_MPEGH/ISO/HEVC
Duration : 1 h 50 min
Bit rate : 819 kb/s
Width : 1 280 pixels
Height : 534 pixels
Display aspect ratio : 2.40:1
Frame rate mode : Constant
Frame rate : 23.976 (24000/1001) FPS
Color space : YUV
Chroma subsampling : 4:2:0
Bit depth : 8 bits
Bits/(Pixel*Frame) : 0.050
Stream size : 648 MiB (93%)
Default : Yes
Forced : No
Color range : Limited
Color primaries : BT.709
Transfer characteristics : BT.709
Matrix coefficients : BT.709

Audio
ID : 1
Format : AAC LC SBR
Commercial name : HE-AAC
Format settings : Explicit
Codec ID : A_AAC-2
Duration : 1 h 50 min
Bit rate : 64.0 kb/s
Channel(s) : 2 channels
Channel layout : L R
Sampling rate : 48.0 kHz
Frame rate : 23.438 FPS (2048 SPF)
Compression mode : Lossy
Delay relative to video : 3 ms
Stream size : 50.7 MiB (7%)
Language : English
Default : Yes
Forced : No

Text
ID : 2
Format : UTF-8
Codec ID : S_TEXT/UTF8
Codec ID/Info : UTF-8 Plain Text
Duration : 1 h 41 min
Bit rate : 26 b/s
Count of elements : 676
Stream size : 20.1 KiB (0%)
Language : English
Default : Yes
Forced : No

[collapse]
Download Link(s)

Download

Direct download files get automatically deleted after a month or so. Posted on : 04/10/2019

[collapse]
Magnet Link

Magnet

Kill.Bill.Volume.1.2003.1080p.BluRay.x264-LiBRARiANS-8.97 GB

[collapse]

You may also like...

error: nah :p~