Kill Bill: Vol. 2 (2004)

R | 2h 17min | Action, Crime, Thriller | 16 April 2004 (USA)

The Bride continues her quest of vengeance against her former boss and lover Bill, the reclusive bouncer Budd, and the treacherous, one-eyed Elle.

Watch trailer

Media information

General
Format : Matroska
Format version : Version 4
File size : 851 MiB
Duration : 2 h 16 min
Overall bit rate : 869 kb/s
Movie name : Kill.Bill.Vol.2.2004.720p.BluRay.2CH.x265.HEVC
Encoded date : UTC 2019-04-10 18:35:40
Writing application : mkvmerge v32.0.0 (‘Astral Progressions’) 32-bit
Writing library : libebml v1.3.7 + libmatroska v1.5.0

Video
ID : 3
Format : HEVC
Format/Info : High Efficiency Video Coding
Format profile : [email protected]@Main
Codec ID : V_MPEGH/ISO/HEVC
Duration : 2 h 16 min
Bit rate : 803 kb/s
Width : 1 280 pixels
Height : 534 pixels
Display aspect ratio : 2.40:1
Frame rate mode : Constant
Frame rate : 23.976 (24000/1001) FPS
Color space : YUV
Chroma subsampling : 4:2:0
Bit depth : 8 bits
Bits/(Pixel*Frame) : 0.049
Stream size : 786 MiB (92%)
Default : Yes
Forced : No
Color range : Limited
Color primaries : BT.709
Transfer characteristics : BT.709
Matrix coefficients : BT.709

Audio
ID : 1
Format : AAC LC SBR
Commercial name : HE-AAC
Format settings : Explicit
Codec ID : A_AAC-2
Duration : 2 h 16 min
Bit rate : 64.0 kb/s
Channel(s) : 2 channels
Channel layout : L R
Sampling rate : 48.0 kHz
Frame rate : 23.438 FPS (2048 SPF)
Compression mode : Lossy
Delay relative to video : 3 ms
Stream size : 62.7 MiB (7%)
Language : English
Default : Yes
Forced : No

Text
ID : 2
Format : UTF-8
Codec ID : S_TEXT/UTF8
Codec ID/Info : UTF-8 Plain Text
Duration : 2 h 16 min
Bit rate : 38 b/s
Count of elements : 1178
Stream size : 38.1 KiB (0%)
Language : English
Default : Yes
Forced : No

[collapse]
Download Link(s)

Download

Direct download files get automatically deleted after a month or so. Posted on : 04/10/2019

[collapse]
Magnet Link

Magnet

Kill.Bill.Volume.2.2004.1080p.BluRay.x264-LiBRARiANS-10.68 GB

[collapse]

You may also like...

error: nah :p~