Killers Anonymous (2019)

R | 1h 35min | Action, Crime, Mystery | 28 June 2019 (USA)

A support group of killers is held regularly, the participants sit in a circle of trust and share their transgressions.

Watch trailer

Media information

General
Format : Matroska
Format version : Version 4
File size : 649 MiB
Duration : 1 h 35 min
Overall bit rate : 947 kb/s
Movie name : Killers.Anonymous.2019.720p.WEB-DL.2CH.x265.HEVC
Encoded date : UTC 2019-06-28 11:24:09
Writing application : mkvmerge v35.0.0 (‘All The Love In The World’) 32-bit
Writing library : libebml v1.3.9 + libmatroska v1.5.2

Video
ID : 1
Format : HEVC
Format/Info : High Efficiency Video Coding
Format profile : [email protected]@Main
Codec ID : V_MPEGH/ISO/HEVC
Duration : 1 h 35 min
Bit rate : 873 kb/s
Width : 1 280 pixels
Height : 544 pixels
Display aspect ratio : 2.35:1
Frame rate mode : Constant
Frame rate : 23.976 (24000/1001) FPS
Color space : YUV
Chroma subsampling : 4:2:0
Bit depth : 8 bits
Bits/(Pixel*Frame) : 0.052
Stream size : 598 MiB (92%)
Default : Yes
Forced : No

Audio
ID : 2
Format : AAC LC SBR
Commercial name : HE-AAC
Format settings : Explicit
Codec ID : A_AAC-2
Duration : 1 h 35 min
Bit rate : 72.0 kb/s
Channel(s) : 2 channels
Channel layout : L R
Sampling rate : 48.0 kHz
Frame rate : 23.438 FPS (2048 SPF)
Compression mode : Lossy
Delay relative to video : 23 ms
Stream size : 49.6 MiB (8%)
Language : English
Default : Yes
Forced : No

Text
ID : 3
Format : UTF-8
Codec ID : S_TEXT/UTF8
Codec ID/Info : UTF-8 Plain Text
Duration : 1 h 29 min
Bit rate : 66 b/s
Count of elements : 1355
Stream size : 44.1 KiB (0%)
Language : English
Default : Yes
Forced : No

[collapse]
Download Link(s)

Download

Direct download files get automatically deleted after a month or so. Posted on : 06/28/2019

[collapse]
Magnet Link

Magnet

Killers.Anonymous.2019.1080p.AMZN.WEBRip.DDP5.1.x264-NTG-6.15 GB

[collapse]

You may also like...

error: nah :p~