King Arthur (2004)

PG-13 | 2h 6min | Action, Adventure, Drama | 7 July 2004 (USA)

A demystified take on the tale of King Arthur and the Knights of the Round Table.

Watch trailer

Media information

General
Format : Matroska
Format version : Version 4 / Version 2
File size : 851 MiB
Duration : 2 h 21 min
Overall bit rate : 840 kb/s
Movie name : King.Arthur.2004.DiRECTORS.CUT.REPACK.720p.BluRay.2CH.x265.HEVC
Encoded date : UTC 2018-08-02 22:14:01
Writing application : mkvmerge v25.0.0 (‘Prog Noir’) 32-bit
Writing library : libebml v1.3.6 + libmatroska v1.4.9

Video
ID : 1
Format : HEVC
Format/Info : High Efficiency Video Coding
Format profile : [email protected]@Main
Codec ID : V_MPEGH/ISO/HEVC
Duration : 2 h 21 min
Bit rate : 774 kb/s
Width : 1 280 pixels
Height : 544 pixels
Display aspect ratio : 2.35:1
Frame rate mode : Constant
Frame rate : 23.976 (24000/1001) FPS
Color space : YUV
Chroma subsampling : 4:2:0
Bit depth : 8 bits
Bits/(Pixel*Frame) : 0.046
Stream size : 784 MiB (92%)
Default : Yes
Forced : No
Color range : Limited
Color primaries : BT.709
Transfer characteristics : BT.709
Matrix coefficients : BT.709

Audio
ID : 3
Format : AAC
Format/Info : Advanced Audio Codec
Format profile : HE-AAC / LC
Format settings : Explicit
Codec ID : A_AAC-2
Duration : 2 h 21 min
Bit rate : 64.0 kb/s
Channel(s) : 2 channels
Channel positions : Front: L R
Sampling rate : 48.0 kHz / 24.0 kHz
Frame rate : 23.438 FPS (1024 SPF)
Compression mode : Lossy
Delay relative to video : -4 ms
Stream size : 64.8 MiB (8%)
Default : Yes
Forced : No

Text
ID : 2
Format : UTF-8
Codec ID : S_TEXT/UTF8
Codec ID/Info : UTF-8 Plain Text
Duration : 2 h 13 min
Bit rate : 34 b/s
Count of elements : 1016
Stream size : 34.0 KiB (0%)
Default : Yes
Forced : No

[collapse]
Download Link(s)

Download

Direct download files get automatically deleted after a month or so. Posted on : 08/03/2018

[collapse]
Magnet Link

Magnet

Source : King.Arthur.2004.DiRECTORS.CUT.1080p.BluRay.x264-SUNSPOT-10.13 GB

[collapse]

You may also like...

error: nah :p~