Knives Out (2019)

PG-13 | 2h 11min | Comedy, Crime, Drama | 27 November 2019 (USA)

A detective investigates the death of a patriarch of an eccentric, combative family.

Watch trailer

Media information

General
Format : Matroska
Format version : Version 4
File size : 2.47 GiB
Duration : 2 h 10 min
Overall bit rate : 2 717 kb/s
Movie name : Knives.Out.2019.1080p.BrRip.6CH.x265.HEVC

Video
ID : 1
Format : HEVC
Format/Info : High Efficiency Video Coding
Format profile : [email protected]@Main
Codec ID : V_MPEGH/ISO/HEVC
Duration : 2 h 10 min
Bit rate : 2 510 kb/s
Width : 1 920 pixels
Height : 1 040 pixels
Display aspect ratio : 1.85:1
Frame rate mode : Constant
Frame rate : 23.976 (24000/1001) FPS
Color space : YUV
Chroma subsampling : 4:2:0
Bit depth : 8 bits
Bits/(Pixel*Frame) : 0.052
Stream size : 2.28 GiB (92%)
Default : Yes
Forced : No
Color range : Limited
Matrix coefficients : BT.709

Audio
ID : 2
Format : AAC LC SBR
Commercial name : HE-AAC
Format settings : Explicit
Codec ID : A_AAC-2
Duration : 2 h 10 min
Bit rate : 205 kb/s
Channel(s) : 6 channels
Channel layout : C L R Ls Rs LFE
Sampling rate : 48.0 kHz
Frame rate : 23.438 FPS (2048 SPF)
Compression mode : Lossy
Delay relative to video : 23 ms
Stream size : 191 MiB (8%)
Language : English
Default : Yes
Forced : No

Text #1
ID : 3
Format : UTF-8
Codec ID : S_TEXT/UTF8
Codec ID/Info : UTF-8 Plain Text
Duration : 2 h 4 min
Bit rate : 90 b/s
Count of elements : 2797
Stream size : 83.1 KiB (0%)
Title : SDH
Language : English
Default : No
Forced : No

Text #2
ID : 4
Format : UTF-8
Codec ID : S_TEXT/UTF8
Codec ID/Info : UTF-8 Plain Text
Duration : 2 h 3 min
Bit rate : 85 b/s
Count of elements : 2617
Stream size : 76.9 KiB (0%)
Language : English
Default : Yes
Forced : No

[collapse]
Download Link(s)

Part01 Part02

Direct download files get automatically deleted after a month or so. Posted on : 02/14/2020

[collapse]
Magnet Link

Magnet

Knives.Out.2019.1080p.BluRay.x264-YOL0W-8.76 GB

[collapse]

Media information

General
Format : Matroska
Format version : Version 4
File size : 1 000 MiB
Duration : 2 h 10 min
Overall bit rate : 1 073 kb/s
Movie name : Knives.Out.2019.720p.BrRip.2CH.x265.HEVC

Video
ID : 1
Format : HEVC
Format/Info : High Efficiency Video Coding
Format profile : [email protected]@Main
Codec ID : V_MPEGH/ISO/HEVC
Duration : 2 h 10 min
Bit rate : 1 003 kb/s
Width : 1 280 pixels
Height : 688 pixels
Display aspect ratio : 1.85:1
Frame rate mode : Constant
Frame rate : 23.976 (24000/1001) FPS
Color space : YUV
Chroma subsampling : 4:2:0
Bit depth : 8 bits
Bits/(Pixel*Frame) : 0.048
Stream size : 935 MiB (93%)
Default : Yes
Forced : No
Color range : Limited
Matrix coefficients : BT.709

Audio
ID : 2
Format : AAC LC SBR
Commercial name : HE-AAC
Format settings : Explicit
Codec ID : A_AAC-2
Duration : 2 h 10 min
Bit rate : 67.7 kb/s
Channel(s) : 2 channels
Channel layout : L R
Sampling rate : 48.0 kHz
Frame rate : 23.438 FPS (2048 SPF)
Compression mode : Lossy
Delay relative to video : 23 ms
Stream size : 63.1 MiB (6%)
Language : English
Default : Yes
Forced : No

Text #1
ID : 3
Format : UTF-8
Codec ID : S_TEXT/UTF8
Codec ID/Info : UTF-8 Plain Text
Duration : 2 h 4 min
Bit rate : 90 b/s
Count of elements : 2797
Stream size : 83.1 KiB (0%)
Title : SDH
Language : English
Default : No
Forced : No

Text #2
ID : 4
Format : UTF-8
Codec ID : S_TEXT/UTF8
Codec ID/Info : UTF-8 Plain Text
Duration : 2 h 3 min
Bit rate : 85 b/s
Count of elements : 2617
Stream size : 76.9 KiB (0%)
Language : English
Default : Yes
Forced : No

[collapse]
Download Link(s)

Download

Direct download files get automatically deleted after a month or so. Posted on : 02/14/2020

[collapse]
Magnet Link

Magnet

Knives.Out.2019.1080p.BluRay.x264-YOL0W-8.76 GB

[collapse]

Media information

General
Format : Matroska
Format version : Version 4
File size : 844 MiB
Duration : 2 h 10 min
Overall bit rate : 907 kb/s
Movie name : Knives.Out.2019.720p.WEBRip.2CH.x265.HEVC

Video
ID : 1
Format : HEVC
Format/Info : High Efficiency Video Coding
Format profile : [email protected]@Main
Codec ID : V_MPEGH/ISO/HEVC
Duration : 2 h 10 min
Bit rate : 837 kb/s
Width : 1 280 pixels
Height : 688 pixels
Display aspect ratio : 1.85:1
Frame rate mode : Constant
Frame rate : 23.976 (24000/1001) FPS
Color space : YUV
Chroma subsampling : 4:2:0
Bit depth : 8 bits
Bits/(Pixel*Frame) : 0.040
Stream size : 779 MiB (92%)
Default : Yes
Forced : No
Color range : Limited
Color primaries : BT.709
Transfer characteristics : BT.709
Matrix coefficients : BT.709

Audio
ID : 2
Format : AAC LC SBR
Commercial name : HE-AAC
Format settings : Explicit
Codec ID : A_AAC-2
Duration : 2 h 10 min
Bit rate : 67.9 kb/s
Channel(s) : 2 channels
Channel layout : L R
Sampling rate : 48.0 kHz
Frame rate : 23.438 FPS (2048 SPF)
Compression mode : Lossy
Delay relative to video : 23 ms
Stream size : 63.1 MiB (7%)
Language : English
Default : Yes
Forced : No

Text
ID : 3
Format : UTF-8
Codec ID : S_TEXT/UTF8
Codec ID/Info : UTF-8 Plain Text
Duration : 2 h 3 min
Bit rate : 84 b/s
Count of elements : 2617
Stream size : 76.9 KiB (0%)
Language : English
Default : Yes
Forced : No

[collapse]
Download Link(s)

Download

Direct download files get automatically deleted after a month or so. Posted on : 02/07/2020

[collapse]
Magnet Link

Magnet

Knives.Out.2019.1080p.WEBRip.DD5.1.x264-CM-7.30 GB

[collapse]

You may also like...

error: nah :p~