Kong: Skull Island (2017)

PG-13 | 1h 58min | Action, Adventure, Fantasy | 10 March 2017 (USA)

A team of scientists explore an uncharted island in the Pacific, venturing into the domain of the mighty Kong, and must fight to escape a primal Eden.

Watch trailer

Media information

General
Format : Matroska
Format version : Version 4
File size : 1.24 GiB
Duration : 1 h 58 min
Overall bit rate : 1 501 kb/s
Movie name : Kong.Skull.Island.2017.720p.10bit.BluRay.6CH.x265.HEVC
Encoded date : UTC 2019-01-03 08:19:59
Writing application : mkvmerge v29.0.0 (‘Like It Or Not’) 32-bit
Writing library : libebml v1.3.6 + libmatroska v1.4.9

Video
ID : 1
Format : HEVC
Format/Info : High Efficiency Video Coding
Format profile : Main [email protected]@Main
Codec ID : V_MPEGH/ISO/HEVC
Duration : 1 h 58 min
Bit rate : 1 292 kb/s
Width : 1 280 pixels
Height : 536 pixels
Display aspect ratio : 2.40:1
Frame rate mode : Constant
Frame rate : 23.976 (24000/1001) FPS
Color space : YUV
Chroma subsampling : 4:2:0
Bit depth : 10 bits
Bits/(Pixel*Frame) : 0.079
Stream size : 1.07 GiB (86%)
Default : Yes
Forced : No

Audio
ID : 2
Format : AAC LC SBR
Commercial name : HE-AAC
Format settings : Explicit
Codec ID : A_AAC-2
Duration : 1 h 58 min
Bit rate : 207 kb/s
Channel(s) : 6 channels
Channel layout : C L R Ls Rs LFE
Sampling rate : 48.0 kHz
Frame rate : 23.438 FPS (2048 SPF)
Compression mode : Lossy
Delay relative to video : 23 ms
Stream size : 175 MiB (14%)
Language : English
Default : Yes
Forced : No

Text #1
ID : 3
Format : UTF-8
Codec ID : S_TEXT/UTF8
Codec ID/Info : UTF-8 Plain Text
Duration : 1 h 54 min
Bit rate : 46 b/s
Count of elements : 1249
Stream size : 38.6 KiB (0%)
Title : ENG
Language : English
Default : Yes
Forced : No

Text #2
ID : 4
Format : UTF-8
Codec ID : S_TEXT/UTF8
Codec ID/Info : UTF-8 Plain Text
Duration : 1 h 58 min
Bit rate : 51 b/s
Count of elements : 1530
Stream size : 44.8 KiB (0%)
Title : ENG SDH
Language : English
Default : No
Forced : No

[collapse]
Download Link(s)

Part01 Part02

[RE-UP]-Direct download files get automatically deleted after a month or so. Posted on: 07/17/2019

[collapse]
Magnet Link

Magnet

Kong.Skull.Island.2017.2160p.BluRay.x265.10bit.HDR.TrueHD.7.1.Atmos-TERMiNAL-18.11 GB

[collapse]

You may also like...

error: nah :p~