Kung Fu Traveler 2 (2017)

Action, Fantasy, Sci-Fi | 21 August 2017 (USA)

Southern Style Kung Fu was unsuccessful in defeating the invading enemy aliens. General Chen (Tiger Chen) has no choice but to be go back in time again to the late Qing Dynasty to find the master of Northern Style Kung Fu.

Watch trailer

Media information

General
Format : Matroska
Format version : Version 4 / Version 2
File size : 763 MiB
Duration : 1 h 35 min
Overall bit rate : 1 117 kb/s
Movie name : Kung.Fu.Traveler.2.2017.720p.WEB-DL.2CH.x264.AVC
Encoded date : UTC 2018-07-12 12:31:43
Writing application : mkvmerge v24.0.0 (‘Beyond The Pale’) 32-bit
Writing library : libebml v1.3.6 + libmatroska v1.4.9

Video
ID : 1
Format : AVC
Format/Info : Advanced Video Codec
Format profile : [email protected]
Format settings : CABAC / 4 Ref Frames
Format settings, CABAC : Yes
Format settings, RefFrames : 4 frames
Codec ID : V_MPEG4/ISO/AVC
Duration : 1 h 35 min
Bit rate : 1 000 kb/s
Width : 1 280 pixels
Height : 536 pixels
Display aspect ratio : 2.40:1
Frame rate mode : Constant
Frame rate : 23.976 (24000/1001) FPS
Color space : YUV
Chroma subsampling : 4:2:0
Bit depth : 8 bits
Scan type : Progressive
Bits/(Pixel*Frame) : 0.061
Stream size : 674 MiB (88%)
Default : Yes
Forced : No
Color range : Limited
Color primaries : BT.709
Transfer characteristics : BT.709
Matrix coefficients : BT.709

Audio
ID : 2
Format : AAC
Format/Info : Advanced Audio Codec
Format profile : HE-AAC / LC
Format settings : NBC
Codec ID : A_AAC-5
Duration : 1 h 35 min
Bit rate : 128 kb/s
Channel(s) : 2 channels
Channel positions : Front: L R
Sampling rate : 48.0 kHz / 24.0 kHz
Frame rate : 23.438 FPS (1024 SPF)
Compression mode : Lossy
Delay relative to video : -105 ms
Stream size : 87.4 MiB (11%)
Language : Chinese
Default : Yes
Forced : No

Text
ID : 3
Format : ASS
Codec ID : S_TEXT/ASS
Codec ID/Info : Advanced Sub Station Alpha
Duration : 1 h 30 min
Bit rate : 74 b/s
Count of elements : 859
Compression mode : Lossless
Stream size : 49.7 KiB (0%)
Language : English
Default : Yes
Forced : No

[collapse]
Download Link(s)

Download

Direct download files get automatically deleted after a month or so. Posted on : 07/12/2018

[collapse]
Magnet Link

Magnet

Source : Kung.Fu.Traveler.2.2017.CHINESE.1080p.AMZN.WEBRip.DDP5.1.x264-NTG-2.63 GB

[collapse]

You may also like...

error: nah :p~