Kursk (2018)

PG-13 | 1h 57min | Action, Drama, History | 21 June 2019 (USA)

The film follows the 2000 K-141 Kursk submarine disaster and the governmental negligence that followed. As the sailors fight for survival, their families desperately battle political obstacles and impossible odds to save them.

Watch trailer

Media information

General
Format : Matroska
Format version : Version 4
File size : 947 MiB
Duration : 1 h 57 min
Overall bit rate : 1 126 kb/s
Movie name : Kursk.2018.720p.10bit.BluRay.6CH.x265.HEVC
Encoded date : UTC 2019-03-10 13:50:30
Writing application : mkvmerge v31.0.0 (‘Dolores In A Shoestand’) 64-bit
Writing library : libebml v1.3.6 + libmatroska v1.4.9

Video
ID : 1
Format : HEVC
Format/Info : High Efficiency Video Coding
Format profile : Main [email protected]@Main
Codec ID : V_MPEGH/ISO/HEVC
Duration : 1 h 57 min
Bit rate : 920 kb/s
Width : 1 280 pixels
Height : 536 pixels
Display aspect ratio : 2.40:1
Frame rate mode : Constant
Frame rate : 24.000 FPS
Color space : YUV
Chroma subsampling : 4:2:0
Bit depth : 10 bits
Bits/(Pixel*Frame) : 0.056
Stream size : 774 MiB (82%)
Default : Yes
Forced : No

Audio
ID : 2
Format : AAC LC SBR
Commercial name : HE-AAC
Format settings : Explicit
Codec ID : A_AAC-2
Duration : 1 h 57 min
Bit rate : 204 kb/s
Channel(s) : 6 channels
Channel layout : C L R Ls Rs LFE
Sampling rate : 48.0 kHz
Frame rate : 23.438 FPS (2048 SPF)
Compression mode : Lossy
Delay relative to video : 31 ms
Stream size : 172 MiB (18%)
Default : Yes
Forced : No

[collapse]
Download Link(s)

Download

No subs are available

Direct download files get automatically deleted after a month or so. Posted on : 03/11/2019

[collapse]
Magnet Link

Magnet

Kursk.2018.1080p.BluRay.REMUX.AVC.DTS-HD.MA.7.1-FGT-27.11 GB

[collapse]

You may also like...

error: nah :p~