Lake Placid: Legacy (2018)

R | 1h 30min | Action, Horror, Sci-Fi | TV Movie 28 May 2018

Legacy finds the team of young explorers out to reveal the secrets of an area removed from modern day maps and hidden behind electric fences. However, once they reach the center of the lake, they discover an island that harbors an abandoned facility with a horrific legacy: the island is home to a deadly predator eager to feast on those dumb enough to ignore the warnings. But before they can turn back, our hapless heroes get dragged into a battle for their lives — and will need to work together if they hope to survive.

Watch trailer

Media information

General
Format : Matroska
Format version : Version 4
File size : 803 MiB
Duration : 1 h 33 min
Overall bit rate : 1 206 kb/s
Movie name : Lake.Placid.Legacy.2018.720p.WEB-DL.2CH.x265.HEVC
Encoded date : UTC 2018-09-04 11:05:35
Writing application : mkvmerge v26.0.0 (‘In The Game’) 32-bit
Writing library : libebml v1.3.6 + libmatroska v1.4.9

Video
ID : 1
Format : HEVC
Format/Info : High Efficiency Video Coding
Format profile : [email protected]@Main
Codec ID : V_MPEGH/ISO/HEVC
Duration : 1 h 33 min
Bit rate : 1 134 kb/s
Width : 1 280 pixels
Height : 688 pixels
Display aspect ratio : 1.85:1
Frame rate mode : Constant
Frame rate : 23.976 (24000/1001) FPS
Color space : YUV
Chroma subsampling : 4:2:0
Bit depth : 8 bits
Bits/(Pixel*Frame) : 0.054
Stream size : 755 MiB (94%)
Default : Yes
Forced : No

Audio
ID : 2
Format : AAC LC SBR
Commercial name : HE-AAC
Format settings : Explicit
Codec ID : A_AAC-2
Duration : 1 h 33 min
Bit rate : 70.2 kb/s
Channel(s) : 2 channels
Channel layout : L R
Sampling rate : 48.0 kHz
Frame rate : 23.438 FPS (2048 SPF)
Compression mode : Lossy
Delay relative to video : 23 ms
Stream size : 46.7 MiB (6%)
Language : English
Default : Yes
Forced : No

Text
ID : 3
Format : UTF-8
Codec ID : S_TEXT/UTF8
Codec ID/Info : UTF-8 Plain Text
Duration : 1 h 29 min
Bit rate : 54 b/s
Count of elements : 1225
Stream size : 35.7 KiB (0%)
Language : English
Default : Yes
Forced : No

[collapse]
Download Link(s)

Download

Direct download files get automatically deleted after a month or so. Posted on : 09/04/2018

[collapse]
Magnet Link

Magnet

Source : Lake.Placid.Legacy.2018.1080p.WEB-DL.DD5.1.H264-FGT-3.65 GB

[collapse]

You may also like...

error: nah :p~