Leviathan (2014)

Leviafan (original title) | R | 2h 20min | Crime, Drama | 5 February 2015 (Russia)

In a Russian coastal town, Kolya is forced to fight the corrupt mayor when he is told that his house will be demolished. He recruits a lawyer friend to help, but the man’s arrival brings further misfortune for Kolya and his family.

Watch trailer

Media information

General
Format : Matroska
Format version : Version 4 / Version 2
File size : 507 MiB
Duration : 2 h 21 min
Overall bit rate : 502 kb/s
Movie name : Leviathan.2014.720p.BrRip.2CH.x265.HEVC
Encoded date : UTC 2018-01-01 01:04:03
Writing application : mkvmerge v19.0.0 (‘Brave Captain’) 32-bit
Writing library : libebml v1.3.5 + libmatroska v1.4.8

Video
ID : 1
Format : HEVC
Format/Info : High Efficiency Video Coding
Format profile : [email protected]@Main
Codec ID : V_MPEGH/ISO/HEVC
Duration : 2 h 21 min
Bit rate : 436 kb/s
Width : 1 280 pixels
Height : 536 pixels
Display aspect ratio : 2.40:1
Frame rate mode : Constant
Frame rate : 24.000 FPS
Color space : YUV
Chroma subsampling : 4:2:0
Bit depth : 8 bits
Bits/(Pixel*Frame) : 0.026
Stream size : 441 MiB (87%)
Writing library : x265 1.5:[Windows][GCC 4.9.0][64 bit]
Default : Yes
Forced : No
Color range : Limited
Color primaries : BT.709
Transfer characteristics : BT.709
Matrix coefficients : BT.709

Audio
ID : 2
Format : AAC
Format/Info : Advanced Audio Codec
Format profile : HE-AAC / LC
Format settings : NBC
Codec ID : A_AAC-5
Duration : 2 h 21 min
Bit rate : 64.0 kb/s
Channel(s) : 2 channels
Channel positions : Front: L R
Sampling rate : 48.0 kHz / 24.0 kHz
Frame rate : 23.438 FPS (1024 SPF)
Compression mode : Lossy
Delay relative to video : -105 ms
Stream size : 64.7 MiB (13%)
Title : Stereo
Language : Russian
Default : Yes
Forced : No

Text
ID : 3
Format : UTF-8
Codec ID : S_TEXT/UTF8
Codec ID/Info : UTF-8 Plain Text
Duration : 2 h 16 min
Bit rate : 42 b/s
Count of elements : 1486
Stream size : 42.9 KiB (0%)
Default : Yes
Forced : No

[collapse]
Download Link(s)

Download

Direct download files get automatically deleted after a month or so. Posted on : 01/01/2018

[collapse]
Magnet Link

Magnet

Source : Leviathan 2014 1080p BluRay x264 Russian AAC – Ozlem-2.1 GB

[collapse]

Release Notes

Language: Russian

Subtitles: English

[collapse]

You may also like...

error: nah :p~