Little Pink House (2017)

1h 38min | Drama | 20 April 2018 (USA)

A small-town nurse named Susette Kelo emerges as the reluctant leader of her working-class neighbors in their struggle to save their homes from political and corporate interests bent on seizing the land and handing it over to Pfizer Corporation. Susette’s battle goes all the way to the US Supreme Court and the controversial 5-4 decision in Kelo vs. City of New London gave government officials the power to bulldoze a neighborhood for the benefit of a multibillion-dollar corporation. The decision outraged Americans across the political spectrum, and that passion fueled reforms that helped curb eminent domain abuse.

Watch trailer

Media information

General
Format : Matroska
Format version : Version 4 / Version 2
File size : 687 MiB
Duration : 1 h 39 min
Overall bit rate : 968 kb/s
Movie name : Little.Pink.House.2017.720p.WEB-DL.2CH.x265.HEVC
Encoded date : UTC 2018-07-26 08:54:11
Writing application : mkvmerge v25.0.0 (‘Prog Noir’) 32-bit
Writing library : libebml v1.3.6 + libmatroska v1.4.9

Video
ID : 1
Format : HEVC
Format/Info : High Efficiency Video Coding
Format profile : [email protected]@Main
Codec ID : V_MPEGH/ISO/HEVC
Duration : 1 h 39 min
Bit rate : 899 kb/s
Width : 1 280 pixels
Height : 720 pixels
Display aspect ratio : 16:9
Frame rate mode : Constant
Frame rate : 23.976 (24000/1001) FPS
Color space : YUV
Chroma subsampling : 4:2:0
Bit depth : 8 bits
Bits/(Pixel*Frame) : 0.041
Stream size : 638 MiB (93%)
Default : Yes
Forced : No

Audio
ID : 2
Format : AAC
Format/Info : Advanced Audio Codec
Format profile : HE-AAC / LC
Format settings : Explicit
Codec ID : A_AAC-2
Duration : 1 h 39 min
Bit rate : 66.2 kb/s
Channel(s) : 2 channels
Channel positions : Front: L R
Sampling rate : 48.0 kHz / 24.0 kHz
Frame rate : 23.438 FPS (1024 SPF)
Compression mode : Lossy
Delay relative to video : 23 ms
Stream size : 47.5 MiB (7%)
Language : English
Default : Yes
Forced : No

Text
ID : 3
Format : UTF-8
Codec ID : S_TEXT/UTF8
Codec ID/Info : UTF-8 Plain Text
Duration : 1 h 34 min
Bit rate : 75 b/s
Count of elements : 1781
Stream size : 52.6 KiB (0%)
Language : English
Default : Yes
Forced : No

[collapse]
Download Link(s)

Download

Direct download files get automatically deleted after a month or so. Posted on : 07/26/2018

[collapse]
Magnet Link

Magnet

Source : Little.Pink.House.2017.1080p.WEB-DL.DD5.1.H264-FGT-3.81 GB

[collapse]

You may also like...

error: nah :p~