Logan (2017)

R | 2h 17min | Action, Drama, Sci-Fi | 3 March 2017 (USA)

In a future where mutants are nearly extinct, an elderly and weary Logan leads a quiet life. But when Laura, a mutant child pursued by scientists, comes to him for help, he must get her to safety.

Watch trailer

Media information

General
Format : Matroska
Format version : Version 4
File size : 3.67 GiB
Duration : 2 h 17 min
Overall bit rate : 3 822 kb/s
Movie name : Logan.2017.2160p.10bit.BluRay.8CH.x265.HEVC

Video
ID : 1
Format : HEVC
Format/Info : High Efficiency Video Coding
Format profile : Main [email protected]@Main
Codec ID : V_MPEGH/ISO/HEVC
Duration : 2 h 17 min
Bit rate : 3 500 kb/s
Width : 3 840 pixels
Height : 1 610 pixels
Display aspect ratio : 2.40:1
Frame rate mode : Constant
Frame rate : 23.976 (24000/1001) FPS
Color space : YUV
Chroma subsampling : 4:2:0
Bit depth : 10 bits
Bits/(Pixel*Frame) : 0.024
Stream size : 3.36 GiB (92%)
Default : Yes
Forced : No
Color range : Limited
Color primaries : BT.2020
Transfer characteristics : PQ
Matrix coefficients : BT.2020 non-constant

Audio
ID : 2
Format : AAC LC
Codec ID : A_AAC-2
Duration : 2 h 17 min
Bit rate : 320 kb/s
Channel(s) : 8 channels
Channel layout : C L R Ls Rs Lw Rw LFE
Sampling rate : 48.0 kHz
Frame rate : 46.875 FPS (1024 SPF)
Compression mode : Lossy
Delay relative to video : -1 ms
Stream size : 315 MiB (8%)
Language : English
Default : Yes
Forced : No

Text
ID : 3
Format : UTF-8
Codec ID : S_TEXT/UTF8
Codec ID/Info : UTF-8 Plain Text
Duration : 2 h 13 min
Bit rate : 41 b/s
Count of elements : 1555
Stream size : 40.4 KiB (0%)
Language : English
Default : Yes
Forced : No

[collapse]
Download Link(s)

Part01 Part02

Direct download files get automatically deleted after a month or so. Posted on : 06/11/2020

[collapse]
Magnet Link

Magnet

Logan-2017-2160p-BluRay-x265-HEVC-10bit-HDR-AAC-7-1-8.1 GB

[collapse]

Media information

General
Format : Matroska
Format version : Version 4
File size : 1.78 GiB
Duration : 2 h 17 min
Overall bit rate : 1 859 kb/s
Movie name : Logan.2017.1080p.10bit.BluRay.8CH.x265.HEVC

Video
ID : 1
Format : HEVC
Format/Info : High Efficiency Video Coding
Format profile : Main [email protected]@Main
Codec ID : V_MPEGH/ISO/HEVC
Duration : 2 h 17 min
Bit rate : 1 600 kb/s
Width : 1 920 pixels
Height : 806 pixels
Display aspect ratio : 2.40:1
Frame rate mode : Constant
Frame rate : 23.976 (24000/1001) FPS
Color space : YUV
Chroma subsampling : 4:2:0
Bit depth : 10 bits
Bits/(Pixel*Frame) : 0.043
Stream size : 1.54 GiB (86%)
Default : Yes
Forced : No
Color range : Limited
Color primaries : BT.2020
Transfer characteristics : PQ
Matrix coefficients : BT.2020 non-constant

Audio
ID : 2
Format : AAC LC
Codec ID : A_AAC-2
Duration : 2 h 17 min
Bit rate : 256 kb/s
Channel(s) : 8 channels
Channel layout : C L R Ls Rs Lw Rw LFE
Sampling rate : 48.0 kHz
Frame rate : 46.875 FPS (1024 SPF)
Compression mode : Lossy
Delay relative to video : -1 ms
Stream size : 252 MiB (14%)
Language : English
Default : Yes
Forced : No

Text
ID : 3
Format : UTF-8
Codec ID : S_TEXT/UTF8
Codec ID/Info : UTF-8 Plain Text
Duration : 2 h 13 min
Bit rate : 41 b/s
Count of elements : 1555
Stream size : 40.4 KiB (0%)
Language : English
Default : Yes
Forced : No

[collapse]
Download Link(s)

Download

Direct download files get automatically deleted after a month or so. Posted on : 06/11/2020

[collapse]
Magnet Link

Magnet

Logan-2017-2160p-BluRay-x265-HEVC-10bit-HDR-AAC-7-1-8.1 GB

[collapse]

Media information

General
Format : Matroska
Format version : Version 4
File size : 1.00 GiB
Duration : 2 h 17 min
Overall bit rate : 1 045 kb/s
Movie name : Logan.2017.720p.10bit.BluRay.6CH.x265.HEVC

Video
ID : 1
Format : HEVC
Format/Info : High Efficiency Video Coding
Format profile : Main [email protected]@Main
Codec ID : V_MPEGH/ISO/HEVC
Duration : 2 h 17 min
Bit rate : 851 kb/s
Width : 1 280 pixels
Height : 538 pixels
Display aspect ratio : 2.40:1
Frame rate mode : Constant
Frame rate : 23.976 (24000/1001) FPS
Color space : YUV
Chroma subsampling : 4:2:0
Bit depth : 10 bits
Bits/(Pixel*Frame) : 0.052
Stream size : 836 MiB (81%)
Default : Yes
Forced : No
Color range : Limited
Color primaries : BT.2020
Transfer characteristics : PQ
Matrix coefficients : BT.2020 non-constant

Audio
ID : 2
Format : AAC LC
Codec ID : A_AAC-2
Duration : 2 h 17 min
Bit rate : 192 kb/s
Channel(s) : 6 channels
Channel layout : C L R Ls Rs LFE
Sampling rate : 48.0 kHz
Frame rate : 46.875 FPS (1024 SPF)
Compression mode : Lossy
Delay relative to video : -1 ms
Stream size : 189 MiB (18%)
Language : English
Default : Yes
Forced : No

Text
ID : 3
Format : UTF-8
Codec ID : S_TEXT/UTF8
Codec ID/Info : UTF-8 Plain Text
Duration : 2 h 13 min
Bit rate : 41 b/s
Count of elements : 1555
Stream size : 40.4 KiB (0%)
Language : English
Default : Yes
Forced : No

[collapse]
Download Link(s)

Download

Direct download files get automatically deleted after a month or so. Posted on : 06/11/2020

[collapse]
Magnet Link

Magnet

Logan-2017-2160p-BluRay-x265-HEVC-10bit-HDR-AAC-7-1-8.1 GB

[collapse]

You may also like...

error: nah :p~