Lost in London (2017)

1h 40min | Comedy, Drama | 19 January 2017 (USA)

Within the course of a night, Woody Harrelson finds himself in a misadventure in London that winds him up in prison.

Watch trailer

Media information

General
Format : Matroska
Format version : Version 4 / Version 2
File size : 768 MiB
Duration : 1 h 43 min
Overall bit rate : 1 036 kb/s
Movie name : Lost.In.London.2017.720p.10bit.WEBRip.2CH.x265.HEVC
Encoded date : UTC 2018-05-28 11:29:38
Writing application : mkvmerge v23.0.0 (‘The Bride Said No’) 32-bit
Writing library : libebml v1.3.6 + libmatroska v1.4.9

Video
ID : 1
Format : HEVC
Format/Info : High Efficiency Video Coding
Format profile : Main [email protected]@Main
Codec ID : V_MPEGH/ISO/HEVC
Duration : 1 h 43 min
Bit rate : 970 kb/s
Width : 1 280 pixels
Height : 720 pixels
Display aspect ratio : 16:9
Frame rate mode : Constant
Frame rate : 23.976 (24000/1001) FPS
Color space : YUV
Chroma subsampling : 4:2:0
Bit depth : 10 bits
Bits/(Pixel*Frame) : 0.044
Stream size : 719 MiB (94%)
Default : Yes
Forced : No

Audio
ID : 2
Format : AAC
Format/Info : Advanced Audio Codec
Format profile : HE-AAC / LC
Format settings : Explicit
Codec ID : A_AAC-2
Duration : 1 h 43 min
Bit rate : 64.0 kb/s
Channel(s) : 2 channels
Channel positions : Front: L R
Sampling rate : 48.0 kHz / 24.0 kHz
Frame rate : 23.438 FPS (1024 SPF)
Compression mode : Lossy
Stream size : 47.4 MiB (6%)
Language : English
Default : Yes
Forced : No

Text
ID : 3
Format : UTF-8
Codec ID : S_TEXT/UTF8
Codec ID/Info : UTF-8 Plain Text
Duration : 1 h 43 min
Bit rate : 97 b/s
Count of elements : 2131
Stream size : 74.0 KiB (0%)
Language : English
Default : Yes
Forced : No

[collapse]
Download Link(s)

Download

Direct download files get automatically deleted after a month or so. Posted on : 05/28/2018

[collapse]
Magnet Link

Magnet

Source : Lost.In.London.2017.1080p.HULU.WEBRip.AAC2.0.x264-4.25 GB

[collapse]

You may also like...

error: nah :p~