Loud Places (2017)

1h 23min | Drama | 9 May 2017 (USA)

A girl in a dead-end town struggles to overcome abuse, raise her young brother and find love in a mysterious, brooding nomad with a dangerous past.

Watch trailer

Media information

General
Format : Matroska
Format version : Version 4
File size : 490 MiB
Duration : 1 h 23 min
Overall bit rate : 825 kb/s
Movie name : Loud.Places.2017.1080p.WEB-DL.2CH.x265.HEVC

Video
ID : 1
Format : HEVC
Format/Info : High Efficiency Video Coding
Format profile : [email protected]@Main
Codec ID : V_MPEGH/ISO/HEVC
Duration : 1 h 23 min
Bit rate : 742 kb/s
Width : 1 920 pixels
Height : 800 pixels
Display aspect ratio : 2.40:1
Frame rate mode : Constant
Frame rate : 23.976 (24000/1001) FPS
Color space : YUV
Chroma subsampling : 4:2:0
Bit depth : 8 bits
Bits/(Pixel*Frame) : 0.020
Stream size : 441 MiB (90%)
Default : Yes
Forced : No
Color range : Limited
Color primaries : BT.709
Transfer characteristics : BT.709
Matrix coefficients : BT.709

Audio
ID : 2
Format : AAC LC
Codec ID : A_AAC-2
Duration : 1 h 23 min
Bit rate : 80.2 kb/s
Channel(s) : 2 channels
Channel layout : L R
Sampling rate : 48.0 kHz
Frame rate : 46.875 FPS (1024 SPF)
Compression mode : Lossy
Delay relative to video : -21 ms
Stream size : 47.6 MiB (10%)
Title : Stereo
Language : English
Default : Yes
Forced : No

Text
ID : 3
Format : ASS
Codec ID : S_TEXT/ASS
Duration : 1 h 20 min
Bit rate : 39 b/s
Count of elements : 479
Compression mode : Lossless
Stream size : 23.1 KiB (0%)
Language : English
Default : Yes
Forced : Yes

[collapse]
Download Link(s)

Download

Direct download files get automatically deleted after a month or so. Posted on : 01/31/2020

[collapse]
Magnet Link

Magnet

Loud.Places.2017.1080p.WEB.h264-WATCHER-2.21 GB

[collapse]

Media information

General
Format : Matroska
Format version : Version 4
File size : 272 MiB
Duration : 1 h 23 min
Overall bit rate : 458 kb/s
Movie name : Loud.Places.2017.720p.WEB-DL.2CH.x265.HEVC

Video
ID : 1
Format : HEVC
Format/Info : High Efficiency Video Coding
Format profile : [email protected]@Main
Codec ID : V_MPEGH/ISO/HEVC
Duration : 1 h 23 min
Bit rate : 376 kb/s
Width : 1 280 pixels
Height : 534 pixels
Display aspect ratio : 2.40:1
Frame rate mode : Constant
Frame rate : 23.976 (24000/1001) FPS
Color space : YUV
Chroma subsampling : 4:2:0
Bit depth : 8 bits
Bits/(Pixel*Frame) : 0.023
Stream size : 223 MiB (82%)
Default : Yes
Forced : No
Color range : Limited
Color primaries : BT.709
Transfer characteristics : BT.709
Matrix coefficients : BT.709

Audio
ID : 2
Format : AAC LC
Codec ID : A_AAC-2
Duration : 1 h 23 min
Bit rate : 80.2 kb/s
Channel(s) : 2 channels
Channel layout : L R
Sampling rate : 48.0 kHz
Frame rate : 46.875 FPS (1024 SPF)
Compression mode : Lossy
Delay relative to video : -21 ms
Stream size : 47.6 MiB (17%)
Title : Stereo
Language : English
Default : Yes
Forced : No

Text
ID : 3
Format : ASS
Codec ID : S_TEXT/ASS
Duration : 1 h 20 min
Bit rate : 39 b/s
Count of elements : 479
Compression mode : Lossless
Stream size : 23.1 KiB (0%)
Language : English
Default : Yes
Forced : Yes

[collapse]
Download Link(s)

Download

Direct download files get automatically deleted after a month or so. Posted on : 01/31/2020

[collapse]
Magnet Link

Magnet

Loud.Places.2017.1080p.WEB.h264-WATCHER-2.21 GB

[collapse]

You may also like...

error: nah :p~