Lucy (2014)


R | 1h 29min | Action, Sci-Fi, Thriller | 25 July 2014 (USA)

A woman, accidentally caught in a dark deal, turns the tables on her captors and transforms into a merciless warrior evolved beyond human logic.

Watch trailer

Media information

General
Format : Matroska
Format version : Version 4 / Version 2
File size : 3.04 GiB
Duration : 1 h 29 min
Overall bit rate : 4 875 kb/s
Movie name : Lucy.2014.1080p.10bit.BluRay.8CH.x265.HEVC
Encoded date : UTC 2018-01-20 20:49:38
Writing application : mkvmerge v20.0.0 (‘I Am The Sun’) 32-bit
Writing library : libebml v1.3.5 + libmatroska v1.4.8

Video
ID : 1
Format : HEVC
Format/Info : High Efficiency Video Coding
Format profile : Main [email protected]@Main
Codec ID : V_MPEGH/ISO/HEVC
Duration : 1 h 29 min
Bit rate : 4 165 kb/s
Width : 1 920 pixels
Height : 804 pixels
Display aspect ratio : 2.40:1
Frame rate mode : Constant
Frame rate : 24.000 FPS
Color space : YUV
Chroma subsampling : 4:2:0
Bit depth : 10 bits
Bits/(Pixel*Frame) : 0.112
Stream size : 2.59 GiB (85%)
Default : Yes
Forced : No

Audio
ID : 2
Format : AAC
Format/Info : Advanced Audio Codec
Format profile : LC
Codec ID : A_AAC-2
Duration : 1 h 29 min
Bit rate : 631 kb/s
Channel(s) : 8 channels
Channel positions : Front: L C R, Side: L R, Back: L R, LFE
Sampling rate : 48.0 kHz
Frame rate : 46.875 FPS (1024 SPF)
Compression mode : Lossy
Delay relative to video : 20 ms
Stream size : 402 MiB (13%)
Language : English
Default : Yes
Forced : No

Text #1
ID : 3
Format : VobSub
Muxing mode : zlib
Codec ID : S_VOBSUB
Codec ID/Info : Picture based subtitle format used on DVDs
Duration : 1 h 20 min
Bit rate : 9 167 b/s
Count of elements : 1014
Stream size : 5.28 MiB (0%)
Language : English
Default : No
Forced : No

Text #2
ID : 4
Format : VobSub
Muxing mode : zlib
Codec ID : S_VOBSUB
Codec ID/Info : Picture based subtitle format used on DVDs
Duration : 50 min 3 s
Bit rate : 591 b/s
Count of elements : 59
Stream size : 217 KiB (0%)
Title : Forced
Language : English
Default : No
Forced : Yes

Text #3
ID : 5
Format : VobSub
Muxing mode : zlib
Codec ID : S_VOBSUB
Codec ID/Info : Picture based subtitle format used on DVDs
Duration : 1 h 27 min
Bit rate : 5 968 b/s
Count of elements : 620
Stream size : 3.75 MiB (0%)
Language : Bulgarian
Default : No
Forced : No

Text #4
ID : 6
Format : VobSub
Muxing mode : zlib
Codec ID : S_VOBSUB
Codec ID/Info : Picture based subtitle format used on DVDs
Duration : 1 h 27 min
Bit rate : 4 682 b/s
Count of elements : 810
Stream size : 2.93 MiB (0%)
Language : Chinese
Default : No
Forced : No

Text #5
ID : 7
Format : VobSub
Muxing mode : zlib
Codec ID : S_VOBSUB
Codec ID/Info : Picture based subtitle format used on DVDs
Duration : 1 h 27 min
Bit rate : 6 641 b/s
Count of elements : 800
Stream size : 4.16 MiB (0%)
Language : Croatian
Default : No
Forced : No

Text #6
ID : 8
Format : VobSub
Muxing mode : zlib
Codec ID : S_VOBSUB
Codec ID/Info : Picture based subtitle format used on DVDs
Duration : 1 h 27 min
Bit rate : 5 946 b/s
Count of elements : 662
Stream size : 3.72 MiB (0%)
Language : Czech
Default : No
Forced : No

Text #7
ID : 9
Format : VobSub
Muxing mode : zlib
Codec ID : S_VOBSUB
Codec ID/Info : Picture based subtitle format used on DVDs
Duration : 1 h 27 min
Bit rate : 5 396 b/s
Count of elements : 826
Stream size : 3.38 MiB (0%)
Language : Estonian
Default : No
Forced : No

Text #8
ID : 10
Format : VobSub
Muxing mode : zlib
Codec ID : S_VOBSUB
Codec ID/Info : Picture based subtitle format used on DVDs
Duration : 1 h 27 min
Bit rate : 7 214 b/s
Count of elements : 793
Stream size : 4.52 MiB (0%)
Language : Greek
Default : No
Forced : No

Text #9
ID : 11
Format : VobSub
Muxing mode : zlib
Codec ID : S_VOBSUB
Codec ID/Info : Picture based subtitle format used on DVDs
Duration : 1 h 27 min
Bit rate : 4 264 b/s
Count of elements : 804
Stream size : 2.68 MiB (0%)
Language : Hebrew
Default : No
Forced : No

Text #10
ID : 12
Format : VobSub
Muxing mode : zlib
Codec ID : S_VOBSUB
Codec ID/Info : Picture based subtitle format used on DVDs
Duration : 1 h 27 min
Bit rate : 6 239 b/s
Count of elements : 771
Stream size : 3.91 MiB (0%)
Language : Hungarian
Default : No
Forced : No

Text #11
ID : 13
Format : VobSub
Muxing mode : zlib
Codec ID : S_VOBSUB
Codec ID/Info : Picture based subtitle format used on DVDs
Duration : 1 h 27 min
Bit rate : 6 764 b/s
Count of elements : 804
Stream size : 4.24 MiB (0%)
Language : Indonesian
Default : No
Forced : No

Text #12
ID : 14
Format : VobSub
Muxing mode : zlib
Codec ID : S_VOBSUB
Codec ID/Info : Picture based subtitle format used on DVDs
Duration : 1 h 27 min
Bit rate : 4 287 b/s
Count of elements : 759
Stream size : 2.70 MiB (0%)
Language : Korean
Default : No
Forced : No

Text #13
ID : 15
Format : VobSub
Muxing mode : zlib
Codec ID : S_VOBSUB
Codec ID/Info : Picture based subtitle format used on DVDs
Duration : 1 h 27 min
Bit rate : 5 184 b/s
Count of elements : 801
Stream size : 3.26 MiB (0%)
Language : Latvian
Default : No
Forced : No

Text #14
ID : 16
Format : VobSub
Muxing mode : zlib
Codec ID : S_VOBSUB
Codec ID/Info : Picture based subtitle format used on DVDs
Duration : 1 h 27 min
Bit rate : 6 517 b/s
Count of elements : 798
Stream size : 4.10 MiB (0%)
Language : Lithuanian
Default : No
Forced : No

Text #15
ID : 17
Format : VobSub
Muxing mode : zlib
Codec ID : S_VOBSUB
Codec ID/Info : Picture based subtitle format used on DVDs
Duration : 1 h 27 min
Bit rate : 5 859 b/s
Count of elements : 702
Stream size : 3.67 MiB (0%)
Language : Polish
Default : No
Forced : No

Text #16
ID : 18
Format : VobSub
Muxing mode : zlib
Codec ID : S_VOBSUB
Codec ID/Info : Picture based subtitle format used on DVDs
Duration : 1 h 27 min
Bit rate : 5 641 b/s
Count of elements : 790
Stream size : 3.53 MiB (0%)
Language : Portuguese
Default : No
Forced : No

Text #17
ID : 19
Format : VobSub
Muxing mode : zlib
Codec ID : S_VOBSUB
Codec ID/Info : Picture based subtitle format used on DVDs
Duration : 1 h 27 min
Bit rate : 5 918 b/s
Count of elements : 779
Stream size : 3.71 MiB (0%)
Language : Romanian
Default : No
Forced : No

Text #18
ID : 20
Format : VobSub
Muxing mode : zlib
Codec ID : S_VOBSUB
Codec ID/Info : Picture based subtitle format used on DVDs
Duration : 1 h 27 min
Bit rate : 6 520 b/s
Count of elements : 778
Stream size : 4.09 MiB (0%)
Language : Russian
Default : No
Forced : No

Text #19
ID : 21
Format : VobSub
Muxing mode : zlib
Codec ID : S_VOBSUB
Codec ID/Info : Picture based subtitle format used on DVDs
Duration : 1 h 27 min
Bit rate : 4 914 b/s
Count of elements : 768
Stream size : 3.08 MiB (0%)
Language : Slovenian
Default : No
Forced : No

Text #20
ID : 22
Format : VobSub
Muxing mode : zlib
Codec ID : S_VOBSUB
Codec ID/Info : Picture based subtitle format used on DVDs
Duration : 1 h 20 min
Bit rate : 6 715 b/s
Count of elements : 774
Stream size : 3.87 MiB (0%)
Language : Spanish
Default : No
Forced : No

Text #21
ID : 23
Format : VobSub
Muxing mode : zlib
Codec ID : S_VOBSUB
Codec ID/Info : Picture based subtitle format used on DVDs
Duration : 1 h 27 min
Bit rate : 5 029 b/s
Count of elements : 802
Stream size : 3.16 MiB (0%)
Language : Thai
Default : No
Forced : No

Text #22
ID : 24
Format : VobSub
Muxing mode : zlib
Codec ID : S_VOBSUB
Codec ID/Info : Picture based subtitle format used on DVDs
Duration : 1 h 27 min
Bit rate : 6 879 b/s
Count of elements : 792
Stream size : 4.31 MiB (0%)
Language : Turkish
Default : No
Forced : No

Text #23
ID : 25
Format : VobSub
Muxing mode : zlib
Codec ID : S_VOBSUB
Codec ID/Info : Picture based subtitle format used on DVDs
Duration : 1 h 27 min
Bit rate : 6 705 b/s
Count of elements : 782
Stream size : 4.20 MiB (0%)
Language : Ukrainian
Default : No
Forced : No

[collapse]
Download Link(s)

Part02 Part03  Part04  Part05

Direct download files get automatically deleted after a month or so. Posted on : 01/22/2018

[collapse]
Magnet Link

Magnet

Source : Lucy 2014 (1080p Bluray x265 HEVC 10bit AAC 7.1 Tigole) [UTR]-3.4 GB

[collapse]

Media information

General
Format : Matroska
Format version : Version 4 / Version 2
File size : 589 MiB
Duration : 1 h 29 min
Overall bit rate : 925 kb/s
Movie name : Lucy.2014.720p.BluRay.2CH.x265.HEVC
Encoded date : UTC 2018-01-21 13:40:48 / UTC 2018-01-20T20:59:04Z
Writing application : mkvmerge v20.0.0 (‘I Am The Sun’) 32-bit
Writing library : libebml v1.3.5 + libmatroska v1.4.8 / Lavf57.7.2

Video
ID : 1
Format : HEVC
Format/Info : High Efficiency Video Coding
Format profile : [email protected]@Main
Codec ID : V_MPEGH/ISO/HEVC
Duration : 1 h 29 min
Width : 1 280 pixels
Height : 720 pixels
Display aspect ratio : 2.40:1
Frame rate mode : Constant
Frame rate : 24.000 FPS
Color space : YUV
Chroma subsampling : 4:2:0
Bit depth : 8 bits
Writing library : x265 2.1:[Windows][GCC 5.3.1][64 bit] 8bit
Default : Yes
Forced : No
Color range : Limited
Color primaries : BT.709
Transfer characteristics : BT.709
Matrix coefficients : BT.709
FromStats_BitRate : 797265
FromStats_Duration : 01:29:04.709000000
FromStats_FrameCount : 128273
FromStats_StreamSize : 532643683

Audio
ID : 2
Format : Opus
Codec ID : A_OPUS
Duration : 1 h 29 min
Channel(s) : 2 channels
Channel positions : Front: L R
Sampling rate : 48.0 kHz
Compression mode : Lossy
Delay relative to video : 14 ms
Title : Stereo
Language : English
Default : Yes
Forced : No
FromStats_BitRate : 125403
FromStats_Duration : 01:29:04.720000000
FromStats_FrameCount : 267236
FromStats_StreamSize : 83780925

Text
ID : 3
Format : UTF-8
Codec ID : S_TEXT/UTF8
Codec ID/Info : UTF-8 Plain Text
Default : Yes
Forced : No
FromStats_BitRate : 48
FromStats_Duration : 01:20:35.500000000
FromStats_FrameCount : 802
FromStats_StreamSize : 29099

[collapse]
Download Link(s)

Download

Direct download files get automatically deleted after a month or so. Posted on : 01/21/2018

[collapse]
Magnet Link

Magnet

Source : Lucy 2014 (1080p Bluray x265 HEVC 10bit AAC 7.1 Tigole) [UTR]-3.4 GB

[collapse]

You may also like...

error: nah :p~